This file was generated by Ched 2.7.0.0.
#TITLE ""
#ARTIST ""
#DESIGNER ""
#DIFFICULTY 0
#PLAYLEVEL
#SONGID ""
#WAVE ""
#WAVEOFFSET 0
#JACKET ""
#REQUEST "ticks_per_beat 480"
#00002: 4
#BPM01: 134
#00008: 01
#TIL00: ""
#VOLUME: ""
#HISPEED 00
#MEASUREHS 00
#01815:0000001300001300
#01812:13
#0181b:13
#01818:0013
#01810:41
#03118:0013000013000000
#03112:00130000
#03115:13000000000000130000000000000000
#0311b:00130000
#03119:00000000000000000000000000000013
#0281b:00000000000000130000130013000000
#02816:00001313
#02817:13000000000000000000000000000013
#02812:00130000
#0281f:21
#02810:0041
#02912:13000000130000000000000000000013
#02917:0013130000000000
#0291a:00000014
#02916:00000000000000330000000013000000
#0291b:00000000000000330000000000000000
#0091b:00000023000000000000000013001300
#00912:0023000023000000
#00915:23
#00918:00230000000000000000000000000000
#00919:00000000002300000000000000000000
#00917:00000000000000230000000000000000
#00916:00230000
#00914:0000002300000000
#01018:00001300000000000000001300000000
#01015:00000000130000000000000000130000
#0101b:1300000000000013
#01012:0000001300130000
#00116:0000002400001400
#0011a:00000000000000002434000000000000
#00112:0024
#00119:00000000000000000000343400000000
#00117:00000000000000000000000000343434
#00218:00001300001300000000006300001300
#00215:00000013000000000000000000130000
#00212:00000000000000130000000000000013
#0021b:0023
#00219:0000000000630000
#0021a:00000000000000000063000000000000
#00312:00000000001300000000000025000000
#00318:00000063000013000000000000000000
#00315:00000000000000130000000000000000
#00319:0063000025000000
#0031b:23
#0031a:00630000000000000000000000000000
#0111b:1300000000130000
#01118:0013000000000013
#01115:00130013
#01112:13
#01216:00000014000000000000000000000013
#01217:00000013
#01212:1414141414000000
#01316:00000014000000000000000000000000
#01315:00000013
#01318:0000000000000013
#0131a:1414141414000000
#0161a:1414141414141400
#01616:00000014000000000000000000001300
#01715:0000000000000013
#01718:0000001400001300
#0171a:0014140000000000
#01714:0000001400000000
#01712:00140000
#02312:1300000023000013
#02317:0000001313000000
#02316:00000013000000000000000013000000
#0231b:00000013000000000000000000000000
#02217:00000013000000000000000000000000
#0221b:13001313
#02216:0000001313000000
#02212:26
#02416:24000014000024000014000000000000
#02412:00000000000000000000000000000014
#0241a:00000024
#0251a:00000000001400002400000000000000
#02512:0024000000000000
#02518:0000000000240000
#02516:00000024
#02514:0000000000000024
#0261a:14
#02618:0000130000130013
#02615:00130013
#02612:24
#03617:00001300000000000000000000000013
#0361b:0000000000130000
#03619:00000000000000130000000000000000
#03614:0000001300000013
#03612:23
#03616:0023
#04916:14
#04914:0014000000000014
#0491b:13000000000000330000000013000000
#04919:0013000000000000
#04917:00130000
#04912:00000014
#03012:0000001600002400
#03018:0000000000000016
#03016:1414
#03014:00220000
#0301a:00240022
#03518:13000000000000130000230000000000
#03515:0013000023000000
#03512:00130023
#0351b:00130023
#0341a:00140024
#03416:1400001414000014
#03412:00240014
#03715:0013000000000000
#03716:00000000000013000000000000130000
#0371b:0000001300001300
#03719:0000000000000013
#03718:00130000
#03712:23
#04016:14000000140000140000000013000000
#04012:00000000000000001300000000000014
#0401a:00000014
#04014:0000000000130000
#04010:41
#04117:13
#04119:0013000000000000
#0411b:00130000
#04112:00000000140000000000000000000014
#0411a:00000000000000140000000014000000
#04116:00001414
#04316:1414
#04318:0014000000140000
#0431a:00000000140000140000000014000014
#04312:00140000
#0521a:00000000240000140000140000000000
#05216:00000000000000001400000014000014
#05212:14000024
#0531a:00001400240000140000000000000000
#05316:00001414
#05312:14000000000000000000000024000014
#06416:0000000000001414
#06417:00000000000000000000000000140014
#06516:1464000000000000
#06517:00140000000000000000000000000000
#04212:0000001600002600
#04218:0000260000000016
#04216:1414
#04214:00220000
#0421a:00000022
#0151b:13
#01515:0013000000000013
#01512:1300000000130000
#01518:00130013
#01915:00000013000000001300000000001300
#0191b:13
#01912:13
#01918:00000013000000001300000000000000
#03916:00000000001300001300000024000000
#0391b:00130000
#03919:0000001300000000
#03912:00000000000000000000240000000024
#0391a:0000000000240000
#04816:24000014000000000000000000000000
#04812:2414
#04817:0000001313000000
#04810:41
#05116:14000000130000000000000014000014
#05112:13000000000000330000000013000000
#05118:0014000000000000
#05114:0013000000000000
#00612:00000013000000130000000000000013
#0061b:13000000001300000000000000130000
#00619:0014
#00617:0000000000140000
#00613:00000000000000000000001400000000
#00615:00000000000000000014000000000000
#00618:0013000000000000
#00610:41
#00718:00000000000000130000000000000000
#00715:00140000000013000000000000000000
#0071b:00000000001300000000000000000000
#00719:14000025
#00717:0014000000000000
#00713:00000014000000000000000000000000
#00712:0025
#01415:00001300000000000000001300000000
#01418:00000000130000000000000000130000
#01412:1300000000000013
#0141b:0000001300130000
#02018:0000001300001300
#0201b:13
#02012:13
#02015:0013
#0201f:11
#02118:00000013000000001300000000001300
#02112:13
#0211b:13
#02115:00000013000000001300000000000000
#0331b:13000000130000000000000000000013
#0331b:00000000000000000000000000000013
#03312:00000000000000330000000014000000
#03312:00000014
#03316:0013130000000000
#03317:00000000000000330000000013000000
#03817:00001300000000130000000000000000
#03815:0000000000130000
#03816:0000000000000013
#03818:00000013
#03814:0000001300000000
#0381b:0000000000000013
#03812:2323
#04416:14000000140000140000000000000000
#0441b:0013
#04419:0000000000130000
#04417:00000013
#04412:00000014
#0441a:00000000000000000000000000000014
#04516:13001414
#04514:0013000000000000
#04512:00000000130000140000000014000000
#0451a:00000000140000000000000000000014
#0461a:00140000
#04616:1400001414000014
#04612:00260014
#04618:00000026
#04712:00000000140000140000000014000000
#0471a:00140000
#04714:0014000000140000
#04716:1414
#05016:24000014000013001300000000000000
#0501a:2414
#05412:00000000000000001400000000000014
#0541a:1414
#05416:0014240000142400
#05516:1424000014240000
#0551a:00000000000000140000000024000000
#05512:00240000
#06018:00000013000000000014000000130000
#06012:13000000001600000000000000001300
#0601b:00000000000000130000000000000013
#06015:0013000014000000
#06013:0000000000140000
#06016:00000000000000000000001400000000
#06115:14
#06118:00140000001300000000000000000000
#06113:0014000000000000
#06116:00000014000000000000000000000000
#0611b:00000000000000130000000000000000
#06112:0000001325000000
#06119:00000025
#05612:13000000001600000000006300000000
#05615:0013000023000013
#0561b:00000013000000130000000000000013
#05618:00000000000000000000001300130000
#05610:41
#05613:0000000000630000
#05614:00000000000000000063000000000000
#05715:2300001300000000
#0571b:00000000000000130000000000000000
#05718:00000013001300000000000000000000
#05712:00000063000000002500000000000000
#05719:00000025
#05713:0063000000000000
#05714:00630000000000000000000000000000
#0581b:13000000000000000000006300000000
#05818:00001300001600002300000000001300
#05812:00000013000000130000000000000013
#05815:00000000000000000000001300130000
#0581a:0000000000630000
#05819:00000000000000000063000000000000
#05918:2300001300000000
#05912:00000000000000130000000000000000
#05915:00000013001300000000000000000000
#0591a:0063000023000000
#05913:00000023
#0591b:00000063000000000000000000000000
#05919:00630000000000000000000000000000
#00415:00001300001300000000006300001300
#00418:00000013000000000000000000130000
#0041b:00000000000000130000000000000013
#00412:1323
#00414:0000000000630000
#00413:00000000000000000063000000000000
#0051b:00000000001300000000000000000000
#00515:00000063000013000000000000000000
#00518:00000000000000130000000000000000
#00513:00630000000000002300000000000000
#0051a:00000023
#00512:23
#00514:0063000000000000
#0081b:00000013000000130000000000000013
#00812:13000000001300000000000000130000
#00813:0014
#00815:0013000000140000
#00819:00000000000000000000001400000000
#00817:00000000000000000014000000000000
#06215:00000013000000000000000000130000
#06218:00001300001600000000000000000000
#06212:00000000000000130000000000000013
#06217:0014
#06219:0000000000140000
#06214:00000000000000000014000000000000
#0621b:1300000000000013
#06216:00000000000000000000001400000000
#02714:00000000000000000000000000000013
#02712:2324252600230000
#0271b:2300000000230000
#02718:0000002600002300
#0271a:0024000000000000
#02719:00250000
#03212:00000000000000130000130013000000
#03217:00001313
#03216:13000000000000000000000000000013
#0321b:00130000
#0631a:2424002424000000
#06316:00230000000000230000000000000000
#06312:00000024002400000000000000000000
#06317:00230000
#00359:0015
#00352:00000015
#01257:00000053
#01252:0014
#01656:0000000000000063
#0185b:53
#01852:13
#01858:0053
#01855:00000063
#02257:00000023000000000000000000000000
#0225b:63000063
#02252:16
#02256:0053
#02357:0063
#02352:63
#02356:00000023000000000000000000000000
#02758:0000001600000000
#02752:0000001600000000
#02857:63
#02856:00000063
#02852:00630000
#03054:00220000
#03052:0000005600001400
#03058:0000000000000066
#0305a:00140022
#0345a:00540014
#03456:0000002400000024
#03452:00140064
#04258:0000160000000066
#04252:0000005600001600
#04254:00220000
#0425a:00000022
#04352:00640014
#04356:0064
#0435a:00140014
#0405a:00000054
#04056:54540000
#0525a:00140000
#05252:64000014
#05256:00146414
#0535a:00140000
#05352:64000014
#05356:00146414
#05752:0035
#05759:00000045
#06557:00640000000000000000000000000000
#06556:64
#06457:00000000000000000000000000640064
#06456:0000000000006464
#00952:0053
#01155:00630000
#03158:0063
#03155:00000000000000530000000000000000
#0315b:00130013
#03152:00000013
#01058:0023000000000000
#0105b:63
#01056:14
#01052:0000002300000000
#01055:00630000
#02552:0064000000000000
#0245a:00000064
#02456:6400006400000000
#0195b:63
#01952:63
#01958:00000023000000006300000000000000
#01955:00000023000000000000000000000000
#04856:00000024000000000000000014000000
#04852:5454
#04857:0053
#0485b:00000013
#04957:00530000
#04952:0014
#0495b:0013
#0025a:44
#00156:00000024
#0015a:0054
#00559:0000000000000015
#00552:0000000000150000
#00553:0053
#0055a:00000053
#00752:0015
#00759:00000015
#0135a:0014
#01455:0023000000000000
#01452:53
#0145b:0000002300000000
#01458:00530000
#01558:00530000
#01752:00641400
#0175a:00541400
#01754:0000002400000000
#01758:0000002400000000
#0205b:13
#02052:63
#02055:0063
#02058:00000053
#02152:53
#0215b:53
#02155:00000063000000005300000000000000
#02158:00000053000000000000000000000000
#02655:00230000
#02658:00230000
#0265a:64
#02652:64
#0295a:00000054
#02957:00630000
#0295b:0013
#02952:00630000
#02956:0013
#03352:00001364
#03352:00000064
#03356:00530000
#0335b:00530000
#03357:0013
#03552:00130000
#0355b:00000013
#03756:0000002300000000
#0375b:0000002300000000
#04152:00540000
#0415a:00000024
#04156:0014
#04452:00000064
#04456:64640000
#0455a:00640000
#04552:00000024
#04556:0014
#0465a:00540000
#04656:0000002400000024
#04652:00160064
#04658:00000016
#04752:00140014
#0475a:00540014
#04756:0054
#05056:00000024000000006300000014000000
#0505a:6464
#05052:00000013
#05156:00630000
#0515a:0014
#05152:0013
#05556:5464
#0555a:00140014
#05552:00140014
#0545a:64140000
#05456:0024140000241400
#05452:00005414
#06152:0035
#06159:00000045
#0635a:0064
#03856:0000000000000023
#0385b:0000000000000023
#0595a:0063
#05953:00000063
#05959:0000000000150000
#05952:0000000000000015
#03257:00000053
#03256:53
#0325b:00530000
#0013a0:00000000000000001434000000000000
#001390:00000000000000000000343400000000
#001360:00000034
#001370:00000000000000000000000000343434
#0023a0:24
#002321:1323000000000000
#0043b1:1323000000000000
#005331:0013
#005321:0000000000250000
#0053a1:00000013
#005391:0000000000000025
#006351:1323000000000000
#008381:1323000000000000
#009321:0013
#010361:24
#0103b0:13230000
#010380:0053000000000000
#010351:00132300
#010321:0000005300000000
#010380:0000000013230000
#011350:00130000
#011320:0000000000230000
#012370:00000013
#0123b0:00000000000000000000000000000023
#014320:13230000
#014350:0053000000000000
#014381:00132300
#0143b1:0000005300000000
#014350:0000000013230000
#015380:00130000
#0153b0:0000000000230000
#016360:0000000000000013
#017320:00342400
#017340:0000005400000000
#0173a1:00142400
#017381:0000005400000000
#0183b1:13
#018381:0000002300000000
#018351:00001333
#019321:3300002300000000
#019351:00000053000000000000000000000000
#018380:0013
#0183b0:00000033
#0193b0:3300002300000000
#019380:00000053000000000000000000000000
#019380:0013
#0193b0:0000000000000023
#020320:13
#020350:0000002300000000
#020380:00001333
#0213b0:3300002300000000
#021380:00000033000000000000000000000000
#020351:0013
#020321:00000033
#021321:3300002300000000
#021351:00000033000000000000000000000000
#021351:0013
#021321:0000000000000023
#0223b1:1300002300000000
#022371:00000053000000000000000000000000
#022361:0013
#022321:00000023
#0223b0:00000013
#023370:23
#023321:1300002300000000
#023361:00000033000000000000000000000000
#023371:0013
#0233b1:00000023
#024361:14
#0243a1:00540034000024000000000000000000
#024360:0000001400000000
#024320:00000000000000540034000024000000
#0243a1:00000014
#024361:00000000000000000000000000540034
#025361:0024000000000000
#025320:0014000000000000
#025360:00000054003400002400000000000000
#026320:1424
#026350:00530000
#0263a1:1424
#026381:00530000
#028371:13
#0283b1:00230000
#028320:00130000
#028360:00000000000000230000000000000000
#028360:00000013
#028320:00000000000000000000000000000023
#029370:00130000
#0293b0:00000000000000332300000000000000
#029321:00130000
#029361:00000000000000332300000000000000
#0293a1:00000014
#029361:00000000000000000000000000000024
#030341:00122200
#030321:0000005600000000
#0303a1:00000012
#030381:0000000000000056
#0313a1:22
#031351:00000000000000130000000000000000
#031321:00000023
#031380:0013
#0313b0:00000023
#032360:13
#032320:00230000
#0323b1:00130000
#032371:00000000000000230000000000000000
#032371:00000013
#0323b1:00000000000000000000000000000023
#033361:00130000
#033321:00000000000000332300000000000000
#0333b0:00130000
#033370:00000000000000332300000000000000
#033320:00000014
#033360:00000000000000000000000000000024
#033321:00000014
#033361:00000000000000000000000000000024
#0343a1:00142400
#034361:0000005400000000
#034321:00000014
#034361:0000000000000054
#035321:24
#036321:1323000000000000
#036361:0000000013230000
#037361:0000001300000000
#037321:0000000000230000
#0373b0:0000001300000000
#037370:0000000000230000
#038320:1323000000000000
#038360:0000000000000013
#039320:0023000000000000
#0383b1:0000000000000013
#039371:0023000000000000
#040361:14
#0403a1:00240000
#040360:00140000
#040320:00000000000000240000000000000000
#0403a0:00000014
#040360:00000000000000000000000000000024
#041320:00140000
#041360:00000000000000240000000000000000
#0413a0:00000014
#041360:00000000000000000000000000000024
#042340:00122200
#042320:0000005600000000
#0423a0:00000012
#042380:0000000000000056
#0433a0:22
#043320:00140000
#043360:00000000000000240000000000000000
#043360:0014
#043320:00000024
#044360:14
#044320:00240000
#044361:00140000
#0443a1:00000000000000240000000000000000
#044321:00000014
#044361:00000000000000000000000000000024
#0453a1:00140000
#045361:00000000000000240000000000000000
#045321:00000014
#045361:00000000000000000000000000000024
#0463a1:00142400
#046361:0000005400000000
#046321:00000014
#046361:0000000000000054
#047321:24
#0473a1:00140000
#047361:00000000000000240000000000000000
#047361:0014
#0473a1:00000024
#048321:1400003434000000
#048361:00000054000000000000000024000000
#048370:0013
#0483b0:00000023
#049320:00142400
#049371:00130000
#0493b1:00000000000000332300000000000000
#0503a1:1400003434000000
#050361:00000054000000000000000024000000
#050360:0013
#050320:00000023
#0513a0:00142400
#051361:00130000
#051321:00000000000000332300000000000000
#052321:14
#052361:0054240000000000
#052361:0014
#052321:0000000000542400
#053321:14
#053361:0054240000000000
#053361:0014
#053321:0000000000542400
#0543a1:14240000
#054361:0054000000000000
#054321:00001424
#054361:0000000000540000
#055361:14
#0553a1:0034240000000000
#055361:0014
#055321:0000000000342400
#056381:1323000000000000
#058351:1323000000000000
#0593a1:0013
#059391:0000000000250000
#059331:00000013
#059321:0000000000000025
#0603b1:1323000000000000
#062321:1323000000000000
#0633a1:0014
#064361:0000000000005454
#064371:00000000000000000000000000540054
#065361:5424000000000000
#065371:00540000000000000000000000000000
#0029b0:0013
#002980:00000000000000000000002300000000
#0039b0:13
#003980:00000023000000000000000000000000
#004920:0013
#004950:00000000000000000000002300000000
#005920:13
#005950:00000023000000000000000000000000
#056950:0013
#056920:00000000000000000000002300000000
#057950:13
#057920:00000023000000000000000000000000
#058980:0013
#0589b0:00000000000000000000002300000000
#059980:13
#0599b0:00000023000000000000000000000000
