This file was generated by Ched 2.7.0.0.
#TITLE ""
#ARTIST ""
#DESIGNER ""
#DIFFICULTY 0
#PLAYLEVEL
#SONGID ""
#WAVE ""
#WAVEOFFSET 0
#JACKET ""
#REQUEST "ticks_per_beat 480"
#00002: 4
#BPM01: 134
#00008: 01
#TIL00: ""
#VOLUME: ""
#HISPEED 00
#MEASUREHS 00
#06317:0014
#0631a:24
#06212:0014
#0621a:14
#06114:00000014
#06118:0014
#06112:14
#0601a:0014
#06012:14
#0591a:14
#05918:00000024
#05914:0024
#05812:0014
#0581a:14
#05718:0014
#05714:00000014
#05712:14
#0561a:0014
#05615:24
#05610:41
#05412:14
#05414:0014
#0541a:00000024
#05418:00240000
#0521a:14
#05212:00000014
#05218:0014
#05214:00140000
#05512:0014
#05514:14
#05518:00240000
#0531a:0014
#05314:00140000
#05318:14
#05112:0014
#05116:00140000
#0511a:14
#05012:14
#05015:00140000
#05013:0000003400000000
#0491a:0014
#04916:00140000
#04912:14
#0481a:14
#04817:00140000
#04819:0000003400000000
#04810:41
#04713:14141400
#04719:24242400
#0451a:00000014
#04512:0014
#04518:00140000
#04514:14
#0441a:00000014
#04412:0014
#04418:00140000
#04414:14
#04116:00000014
#0411a:0014
#04114:00140000
#04118:14
#04012:00000014
#04018:0014
#04014:00140000
#0401a:24
#04010:41
#03916:0014
#03912:14
#03816:0014
#0381a:14
#03716:0014
#03712:14
#03616:0014
#0361a:14
#03312:00000014
#0331a:0014
#03314:00140000
#03318:14
#03212:00000014
#0321a:0014
#03214:00140000
#03218:14
#02912:00000014
#02918:0014
#02914:00140000
#0291a:14
#02812:00000014
#02818:0014
#02814:00140000
#0281a:24
#0281f:21
#02810:0041
#02614:00000014
#02618:14
#02314:00140000
#02312:14
#02218:0014
#02212:14
#0211a:14
#02014:0014
#0201a:14
#0201f:11
#01912:14
#01818:0014
#01812:14
#01810:41
#01718:00140000
#01618:14141400
#0151a:00140000
#01514:1414
#01418:1414
#01412:00140000
#01112:1414
#01118:00140000
#01014:00140000
#0101a:1414
#0121a:14141400
#0081a:0014
#00812:14
#00718:00000014
#00714:0014
#0071a:14
#00612:0014
#0061a:14
#00610:41
#00512:14
#00514:00000024
#00518:0024
#0041a:0014
#00412:14
#00314:0014
#00318:00000014
#0031a:14
#00212:0014
#0421a:0024
#04212:24
#03012:0024
#0301a:24
#02712:0026002600000000
#02718:26260000
#01312:24242400
#00912:24
#00118:0024
#00114:0000002400000000
#0651a:0054000000000000
#05052:64000014
#05055:00240000
#0485a:54000014
#04857:00240000
#02752:00000016
#0175a:0014
#01758:00540000
#00955:0014
#00952:64
#0025a:14
#05655:14
#0635a:54
#06357:0064
#04759:0014
#04753:0014
#00158:0054
#06154:00000014
#06158:0014
#05758:0014
#05754:00000014
#0535a:0014
#02658:54
#02354:00240000
#02352:64
#0215a:54
#01952:64
#00758:00000014
#00754:0014
#00354:0014
#00358:00000014
#05552:0054
#001380:0014
#0023a0:24
#009320:14
#009350:0000003424000000
#016380:0000000000001434
#017380:0034340000000000
#0173a0:0024
#019320:14
#019340:0024
#0213a0:14
#021380:0024
#023320:1424
#023340:00540000
#0243a0:14000034
#024380:0000003400000000
#025380:0034000000000000
#0253a0:0034
#025390:00000034
#026380:34
#0263a0:0024
#027320:0000001600002600
#0303a0:14240000
#030320:00001424
#0313a0:14240000
#031320:00001424
#034380:14000024
#0343a0:00343400
#035340:14000024
#035320:00343400
#042320:14240000
#0423a0:00001424
#043320:14240000
#0433a0:00001424
#046340:14000024
#046320:00343400
#0483a0:14003424
#048370:00540000
#048390:0000003400000000
#050320:14003424
#050350:00540000
#050330:0000003400000000
#055320:0014
#056350:24
#0633a0:14
#063370:0000003434000000
#0643a0:0054
#0653a0:0024000000000000
