This file was generated by Ched 2.7.0.0.
#TITLE ""
#ARTIST ""
#DESIGNER ""
#DIFFICULTY 0
#PLAYLEVEL
#SONGID ""
#WAVE ""
#WAVEOFFSET 0
#JACKET ""
#REQUEST "ticks_per_beat 480"
#00002: 4
#BPM01: 190
#00008: 01
#TIL00: ""
#VOLUME: ""
#HISPEED 00
#MEASUREHS 00
#01018:16
#01112:16
#01218:16
#01312:16
#01418:16
#0171a:14
#0181a:14
#01912:14
#02012:14
#02010:0000000000000041
#02514:14
#02614:14
#02718:14
#02818:14
#0331a:14
#03310:41
#03414:14
#03518:14
#03612:14
#0371a:14
#03814:14
#04114:14
#04218:14
#04312:14
#0441a:14
#05118:0016
#05112:26
#05110:41
#05212:16
#05218:0016
#05312:16
#05318:0016
#07518:14
#0751f:11
#07614:14
#0771a:14
#07812:14
#07918:14
#08014:14
#0811a:14
#08212:14
#08513:0014
#08519:24
#0851f:21
#08712:14
#08718:0014
#08710:41
#08814:14
#0881a:0014
#08912:14
#08918:0014
#05512:0016
#05518:16
#05618:16
#05612:0016
#05718:16
#05712:0016
#05912:16
#05918:0016
#06012:1616
#06118:16
#06112:0016
#06318:16
#06312:0016
#06418:1616
#06512:16
#06518:0016
#00912:26
#00910:41
#0211a:24
#02212:24
#0231a:24
#02912:24
#0301a:24
#03112:24
#0391a:24
#04718:26
#04812:26
#04918:26
#07412:26
#08319:24
#08313:24
#08413:24
#08419:24
#09118:26
#09212:26
#09318:26
#09418:26
#09512:26
#09618:26
#09712:26
#09812:26
#06718:26
#06812:26
#06918:26
#07018:26
#07112:26
#07218:26
#07312:26
#06210:00000041
#001320:14
#002320:24
#0033a0:14
#0043a0:24
#005340:14
#006340:24
#007380:14
#008380:24
#015320:16
#016320:36362600
#0233a0:14
#0243a0:24
#031320:14
#032320:24
#0393a0:14
#0403a0:24
#045340:14
#046340:24
#054320:1626
#058380:1626
#062380:1626
#066320:1626
#070380:1626
#074320:1626
#086390:1424
#090320:1424
#094380:1626
#098320:1626
