This file was generated by Ched 2.7.0.0.
#TITLE ""
#ARTIST ""
#DESIGNER ""
#DIFFICULTY 0
#PLAYLEVEL
#SONGID ""
#WAVE ""
#WAVEOFFSET 0
#JACKET ""
#REQUEST "ticks_per_beat 480"
#00002: 4
#BPM01: 190
#00008: 01
#TIL00: ""
#VOLUME: ""
#HISPEED 00
#MEASUREHS 00
#0331a:1414
#03310:41
#0411a:14
#04112:0014
#04218:1414
#04214:00140000
#04312:14
#0431a:0014
#04414:1414
#04418:00140000
#07918:14
#07914:00140000
#0791a:0014
#08014:14
#08018:00140000
#08012:0014
#0811a:14
#08114:00140000
#08118:0014
#08112:00000014
#08518:00140000
#08514:0014
#0851a:00000014
#08512:24
#0851f:21
#00918:0014
#00912:24
#00910:41
#01014:1414
#01018:00140000
#0111a:14
#01114:0014
#01218:1414
#01214:00140000
#01312:14
#0131a:0014
#01414:1414
#01418:00140000
#0151a:14
#01512:0014
#02518:1414
#02514:00140000
#02714:1414
#02718:00140000
#03418:1414
#03414:00140000
#03512:1414
#03614:1414
#03618:00140000
#0371a:14
#03712:0014
#03818:1414
#03814:00140000
#05914:00140000
#05918:0014
#05912:00000014
#0591a:24
#07618:14
#0761a:0014
#07614:00140000
#07712:14
#07718:00140000
#07714:0014
#0771a:00000014
#0871a:14
#08714:00140000
#08718:0014
#08712:00000014
#08710:41
#08818:14
#08814:00140000
#0881a:0014
#08914:14
#08918:00140000
#08912:0014
#08916:00000014
#08612:14
#0901a:14
#00112:13
#0011b:0013
#00215:13
#00218:0013
#00312:1313
#0041b:1313
#00515:13
#00518:0013
#00612:13
#0061b:0013
#01712:14
#01718:0014
#0191a:14
#01914:0014
#02312:14
#0231a:0014
#02918:14
#02914:0014
#03018:14
#03014:0014
#03212:0014
#06018:14
#06014:00140000
#0601a:0014
#06112:14
#06118:00140000
#06114:0014
#0611a:00000014
#06214:14
#06218:00140000
#06212:0014
#06210:00000041
#06318:14
#06312:00140000
#0631a:0014
#06314:00000014
#0641a:14
#06412:00140000
#06418:0014
#06514:14
#0651a:00140000
#06512:0014
#06518:00000014
#05114:00140000
#05118:2414
#05110:41
#05212:1414
#0521a:00140000
#05318:1414
#05314:00140014
#0541a:14
#05518:00140000
#05514:1414
#0561a:1414
#05612:00140000
#05714:1414
#05718:00140014
#05812:14
#06614:14
#0751f:11
#00818:26
#04712:26
#04718:0026
#04812:26
#04818:0026
#04912:26
#0671a:24
#0831a:2424
#08312:2424
#08414:00240000
#08418:2424
#01618:24
#03912:24
#03918:00240000
#03914:0024
#0391a:00000024
#04012:24
#05012:24
#0501a:24
#06812:24
#0691a:24
#07012:2424
#0701a:00240024
#07112:26
#07218:26
#07312:26
#07418:2626
#07412:00260000
#09112:24
#0921a:24
#09312:24
#0941a:24000024
#09414:00242400
#09418:0000002400000000
#02014:0000000000000024
#02010:0000000000000041
#02118:0000002400000000
#02114:0000000000000024
#02218:0000002400000000
#0311a:24
#09512:26
#09618:26
#09712:26
#09818:2626
#09812:00260000
#01658:54
#04952:16
#04858:0016
#04852:16
#04758:0016
#04752:16
#0675a:0014
#06852:0014
#0695a:0014
#07152:0016
#07258:0016
#07352:0016
#0905a:54
#09058:0014
#08652:54
#08654:0014
#09152:0014
#0925a:0014
#09352:0014
#03158:0000000000000014
#0315a:64
#04054:0014
#04052:64
#0545a:54
#05852:64
#06654:64
#0885a:0014
#09858:0016
#09552:0016
#09658:0016
#09752:0016
#007340:1424
#008380:16003636360036002600000000000000
#016380:14
#0163a0:0024
#018320:1424
#0203a0:1424
#024320:14
#024340:0024
#026380:14
#0263a0:0024
#028340:14
#028320:0024
#0313a0:14
#031380:0000003400343424
#040320:14
#040340:0024
#0453a0:14
#045380:0034
#0463a0:34
#046380:0024
#050320:1424
#0503a1:1424
#0543a1:14
#054381:0024
#058321:14
#058341:0024
#066341:14
#066321:0024
#0673a1:1434340024000000
#068321:1434340024000000
#0693a1:1434340024000000
#071321:1636360026000000
#072381:1636360026000000
#073321:1636360026000000
#075341:14
#075321:0024
#078321:14
#078341:0024
#0823a1:14
#082381:0024
#086321:14
#086341:0024
#0903a1:14
#090381:0024
#091321:1434340024000000
#0923a1:1434340024000000
#093321:1434340024000000
#095321:1636360026000000
#096381:1636360026000000
#097321:1636360026000000
