This file was generated by Ched 2.7.0.0.
#TITLE ""
#ARTIST ""
#DESIGNER ""
#DIFFICULTY 0
#PLAYLEVEL
#SONGID ""
#WAVE ""
#WAVEOFFSET 0
#JACKET ""
#REQUEST "ticks_per_beat 480"
#00002: 4
#BPM01: 132
#00008: 01
#TIL00: ""
#VOLUME: ""
#HISPEED 00
#MEASUREHS 00
#0011a:14
#0021a:14
#00312:14
#00412:14
#00518:14
#00510:41
#00614:14
#00718:14
#00814:14
#01714:0014
#0171a:24
#01710:41
#0181a:14
#01912:14
#01918:0014
#02012:14
#0211a:14
#02114:0014
#02218:14
#02312:14
#02318:0014
#02414:14
#02612:0016
#02618:26
#02610:41
#02812:16
#02818:0016
#02912:16
#02918:0016
#03018:0016
#03012:26
#03218:16
#03212:0016
#03318:16
#03312:0016
#0341a:14
#0351a:14
#03614:14
#03714:14
#03710:41
#03818:14
#0381f:11
#03918:14
#04012:14
#04112:14
#04618:0016
#04612:26
#0461f:21
#04818:16
#04812:0016
#04918:16
#04912:0016
#05212:14
#0511a:14
#05312:14
#05418:14
#05414:0014
#05518:14
#05514:0014
#0561a:14
#05612:0014
#0571a:14
#05712:0014
#02513:24
#02519:24
#0501a:24
#04710:41
#01110:41
#0093a0:14
#0103a0:24
#011320:14
#012320:24
#013380:14
#014380:24
#015340:14
#016340:24
#027380:1626
#031320:1626
#0423a0:14
#042390:0034
#043380:34
#043390:0034
#0443a0:34
#044390:0034
#045380:24
#047320:1626
#0583a0:14
#059380:34
#0603a0:34
#061380:3400002400000000
