This file was generated by Ched 2.7.0.0.
#TITLE ""
#ARTIST ""
#DESIGNER ""
#DIFFICULTY 0
#PLAYLEVEL
#SONGID ""
#WAVE ""
#WAVEOFFSET 0
#JACKET ""
#REQUEST "ticks_per_beat 480"
#00002: 4
#BPM01: 180
#00008: 01
#TIL00: ""
#VOLUME: ""
#HISPEED 00
#MEASUREHS 00
#0011a:14
#00212:14
#00318:14
#00414:14
#0051a:14
#0061a:14
#00712:14
#00812:14
#0171a:14
#01814:14
#01918:14
#02012:14
#0211a:14
#02214:14
#02518:0016
#02512:26
#02510:41
#02612:16
#02618:0016
#02918:16
#02912:0016
#03018:16
#03012:0016
#02712:16
#02718:0016
#03118:16
#03112:0016
#03312:1616
#03418:1616
#03512:16
#03518:0016
#03718:1616
#03812:1616
#03918:16
#03912:0016
#04518:0014
#04512:24
#04510:41
#0471a:14
#04714:0014
#04914:14
#04918:0014
#05118:14
#05114:0014
#05714:14
#05818:14
#0611a:14
#06110:41
#06212:14
#06318:14
#06414:14
#0651a:14
#0661a:14
#06712:14
#06812:14
#0691a:14
#0691f:11
#07014:14
#07118:14
#07212:14
#0771a:14
#07918:0016
#07912:26
#0791f:21
#08118:16
#08112:0016
#08218:1616
#08312:16
#08318:0016
#08518:1616
#08612:1616
#08718:16
#08712:0016
#08912:1616
#09018:16
#09012:0016
#09418:14
#04318:26
#00910:41
#08010:41
#05310:41
#0093a0:14
#0103a0:24
#011320:14
#012320:24
#013380:14
#014380:24
#015340:14
#016340:24
#023380:14
#024380:24
#028320:1626
#032380:1626
#036320:1626
#040380:1626
#041320:16
#042320:26
#043380:16
#044380:26
#046340:1424
#048380:1424
#050320:1424
#0523a0:1424
#053320:14
#054340:3424
#0553a0:14
#056380:3424
#059320:1400003400002400
#0733a0:14
#0743a0:24
#075320:14
#076320:24
#080320:1626
#084320:1626
#088380:1626
#091380:1626
#092340:14
#093340:24
#095320:14
#096320:24
