This file was generated by Ched 2.7.0.0.
#TITLE ""
#ARTIST ""
#DESIGNER ""
#DIFFICULTY 0
#PLAYLEVEL
#SONGID ""
#WAVE ""
#WAVEOFFSET 0
#JACKET ""
#REQUEST "ticks_per_beat 480"
#00002: 4
#BPM01: 132
#00008: 01
#TIL00: ""
#VOLUME: ""
#HISPEED 00
#MEASUREHS 00
#00718:14
#00814:14
#0091a:14
#01012:14
#0111a:14
#01212:14
#02118:2616
#03318:14
#03314:0014
#00518:14
#00510:41
#00614:14
#02212:1616
#02318:16
#02312:0016
#02512:2616
#02510:41
#02618:1616
#02712:16
#02718:0016
#03418:14
#03414:0014
#03012:14
#0301a:0014
#0321a:14
#03212:0014
#04612:1414
#0451a:0014
#04912:2616
#0491f:0000000000000021
#05018:1616
#05112:16
#05118:0016
#05110:41
#05318:2616
#05412:1616
#05518:16
#05512:0016
#06114:14
#06118:0014
#06214:14
#06218:0014
#0581a:14
#05812:0014
#06012:14
#0601a:0014
#06010:41
#0411f:11
#00118:26
#00218:26
#00312:26
#00412:26
#03510:41
#01510:41
#013380:14
#014380:24
#015340:14
#016340:24
#0173a0:14
#0183a0:24
#019320:14
#020320:24
#024380:1626
#028320:1626
#029380:1424
#031340:1424
#0353a0:1424
#036320:1424
#0373a0:14
#041380:34
#0453a0:24
#047380:14
#048380:24
#052320:1626
#056380:1626
#057340:1424
#059380:1424
#063320:1424
#0643a0:1424
#065340:14
#066340:34
#067340:34
#068340:24
#069380:14
#070380:34
#071380:3400000000000034
#0753a0:24
