This file was generated by Ched 2.7.0.0.
#TITLE ""
#ARTIST ""
#DESIGNER ""
#DIFFICULTY 0
#PLAYLEVEL
#SONGID ""
#WAVE ""
#WAVEOFFSET 0
#JACKET ""
#REQUEST "ticks_per_beat 480"
#00002: 4
#BPM01: 138
#00008: 01
#TIL00: ""
#VOLUME: ""
#HISPEED 00
#MEASUREHS 00
#0001a:14
#00114:14
#00218:14
#00312:14
#0041a:14
#00514:14
#00618:14
#00712:14
#0161a:14
#0171a:14
#01814:14
#01810:41
#01914:14
#02018:14
#02118:14
#02212:14
#02312:14
#0241a:14
#02414:0014
#0251a:14
#02612:14
#02618:0014
#02712:14
#0281a:14
#02814:0014
#02810:41
#0291a:14
#03012:14
#03018:0014
#03112:14
#03212:0016
#03218:26
#03318:16000016
#03312:0016
#03412:16
#03418:0016
#03512:16000016
#03518:0016
#03618:16
#03612:0016
#03718:16000016
#03712:0016
#03812:16
#03818:0016
#03810:41
#03912:16
#04012:0016
#04118:16
#04218:0016
#04312:16
#04412:0016
#04518:16
#04618:0016
#04712:1616
#04718:00160000
#0471f:0011
#05612:0016
#05618:26
#0561f:21
#05818:0016
#05812:26
#06012:0016
#06018:26
#06218:0016
#06212:26
#06312:16000026
#06318:0026
#0641a:14
#06514:14
#06618:14
#06712:14
#0681a:14
#06914:14
#06910:41
#07018:14
#07112:14
#00810:41
#05710:41
#0083a0:14
#0093a0:24
#010340:14
#011340:24
#012380:14
#013380:24
#014320:14
#015320:24
#039380:00001636
#040380:26
#041320:00001636
#042320:26
#043380:00001636
#044380:26
#045320:00001636
#046320:26
#0483a0:14
#049380:34
#0503a0:34
#051380:24
#052320:14
#053340:34
#054320:34
#055340:24
#057380:1626
#059320:1626
#061380:1626
#0723a0:14
#0733a0:24
#074340:14
#075340:24
#076380:14
#077380:24
#078320:14
#079320:3434
#080320:24
