This file was generated by Ched 2.7.0.0.
#TITLE ""
#ARTIST ""
#DESIGNER ""
#DIFFICULTY 0
#PLAYLEVEL
#SONGID ""
#WAVE ""
#WAVEOFFSET 0
#JACKET ""
#REQUEST "ticks_per_beat 480"
#00002: 4
#BPM01: 138
#00008: 01
#TIL00: ""
#VOLUME: ""
#HISPEED 00
#MEASUREHS 00
#00018:00130000
#00015:0013
#00012:13
#0001a:0000000000001414
#00014:00000000000000000000000000140014
#00115:0000130013000013
#00118:00000013
#0011a:14
#0171b:0013
#01718:1300000000130000
#01715:00000013
#01712:0000130000000013
#01815:0013000000001300
#01818:0000130000000013
#0181b:1313
#01812:0000001300000000
#01810:41
#01918:0000000000000013
#01915:13131300
#01912:0013001300130000
#03215:0000130000000013
#03212:0013
#03218:0000001300001300
#0321b:0013000000000000
#03415:0000130000000013
#03412:1313
#03418:0000001300001300
#0341b:0013000000000000
#04012:00141400
#04018:0000001300001300
#0401b:0013000000000000
#04015:0000000000000013
#0061b:13
#00615:00130000
#00618:0013
#00612:0000000000001414
#00616:00000000000000000000000000140014
#0021b:13
#00215:00130000
#00218:00000000000000001300000000140014
#00212:0000000000001414
#0161b:0000001300001300
#01618:0013000000000000
#01615:0000130000000013
#01612:0013
#0211b:1313
#02118:0000000000130000
#02115:00130013
#02112:0000000000000013
#02015:0000130000000013
#02018:0013000000001300
#02012:1313
#0201b:0000001300000000
#02215:0013000000001300
#02218:0000130000000013
#0221b:1313
#02212:0000001300000000
#02312:14
#02316:00140000
#0231a:0024
#03318:0000130000000013
#0331b:1313
#03315:0013000000001300
#03312:0000001300000000
#04115:0000001300001300
#04118:0000000000000013
#0411a:14141400
#04112:0013000000000000
#0481b:13
#04818:0033
#04912:13
#04915:0033
#0571a:0014000000000000
#05719:0000001400000000
#05718:00000013
#05715:0000000000000013
#05714:24
#05713:00240000
#05712:0024
#05710:41
#05812:0014000000000000
#05813:0000001400000000
#05815:00000013
#05818:2400000000000013
#05819:00240000
#0581a:0024
#05918:00000014
#05914:2400000000000014
#0591a:0014000000000000
#05919:0000001400000000
#05913:00240000
#05912:0024
#06016:0014001400140014
#0601a:24242424
#06116:0014001400140014
#06112:24242424
#06216:0014001400140014
#0621a:2424
#06212:00240024
#0631b:1323
#06318:0013000000002300
#06315:00132300
#06312:0000001300002300
#00412:13
#00418:00130000
#00415:0013
#0041a:0000000000001414
#00416:00000000000000000000000000140014
#00318:0000130013000013
#00315:00000013
#00312:14
#00515:0000130013000013
#00518:00000013
#0051a:14
#00718:00131300
#00712:14000023
#0071b:00000023
#00915:00000000000000000000130000000013
#00918:00000000000000000000001300001300
#00912:13001313
#01118:00000000000000000000130000000013
#01115:00000000000000000000001300001300
#0111b:13001313
#01312:0000000000130000
#01318:00000000000000000000001300000000
#01315:13000000000000001300000013000013
#0131b:0000000000000013
#01512:1424
#0151a:00140000
#02512:0013
#02515:1300000000130000
#02518:00000013
#0251b:0000130000000013
#02618:0013000000001300
#02615:0000130000000013
#02612:1313
#0261b:0000001300000000
#02715:0000003300000013
#0271b:0033000000330000
#02412:0000001300001300
#02415:0013000000000000
#02418:0000130000000013
#0241b:0013
#02912:1313
#02915:0000000000130000
#02918:00130013
#0291b:0000000000000013
#02818:0000130000000013
#02815:0013000000001300
#0281b:1313
#02812:0000001300000000
#02810:41
#03012:1313
#03018:0013000000000013
#03015:00130000
#0301b:0000001300000000
#03512:00000013
#03515:0000000000000013
#0351b:0033003300000000
#03618:1300130000000013
#0361b:0013
#03615:0000001300001300
#03612:0013000000000000
#03818:0000130000000013
#0381b:1313
#03815:0000001300001300
#03812:0013000000000000
#03810:41
#03715:0000130000000013
#03712:1313
#03718:0013000000001300
#0371b:0000001300000000
#03912:1324
#03915:0013000000000000
#03918:00130000
#0391b:0000001300000000
#04214:00140000
#04212:1414
#0421b:0013000000000000
#04218:0000001300001300
#04215:0000000000000013
#04318:0000140000000013
#0431a:1414
#04312:0013000000000000
#04315:0000001300001300
#04412:1414
#04416:0014001400000000
#0441a:00140000
#04418:00000013
#04415:0000000000000013
#0451a:1414
#04516:0014001400000000
#04512:00140000
#04515:00000013
#04518:0000000000000013
#04612:14
#04617:0014000000000000
#04613:00140000
#04618:0000001400000000
#04614:0014
#04619:0000000000140000
#04615:00000014
#0461a:0000000000000014
#04712:1313
#04715:0013000000000013
#04718:00130013
#0471b:0000001300000000
#0471f:0011
#05018:13
#0501b:0033
#05115:13
#05112:0033
#05218:13
#05215:00000013
#0521b:00330000
#05315:13
#05318:00000013
#05312:00330000
#0541b:13
#05415:00000013
#05418:00330000
#05512:13
#05515:00130000
#05518:000000000000243434003434
#05612:0014000000000000
#05613:0000001400000000
#05615:00000013
#05618:0000000000000013
#05619:00240000
#0561a:0024
#0561f:21
#06518:00000000130000000000130000000013
#06515:00000000000000000000001300001300
#0651b:13001313
#06715:00000000130000000000130000000013
#06718:00000000000000000000001300001300
#06712:13001313
#0691b:0000130000130000
#06915:00000000000000000000001300000000
#06918:13000000000000001300000013000013
#06912:0000000000000013
#06910:41
#0711a:1424
#07112:00140000
#07215:00130000
#07218:0013
#07212:00000013
#07318:13
#07412:13
#07418:00130000
#07415:0013
#0741b:00000013
#07618:00000000130000000000000000000053
#07612:0013
#0761b:00000013
#0761a:00000000000000000000000000530000
#07619:0000000000000053
#07715:0000130013000013
#07718:00000013
#07717:53
#0781b:1313
#07815:00000000130000000000000000000053
#07812:00000013
#07813:00000000000000000000000000530000
#07814:0000000000000053
#07918:00130000
#07912:0023
#07916:53
#00818:13
#0081b:00000013
#00810:41
#01012:00000013
#01218:00000013
#01415:00000013
#06415:1313
#06412:00130013
#0661b:00130013
#06618:0013
#06815:00130013
#06812:0013
#07018:00130013
#0701b:0013
#03112:24
#0311a:00240000
#03114:000000000000243434003434
#00052:13
#0065b:13
#0025b:13
#01758:13
#0215b:13
#02352:14
#02356:00140000
#03152:14
#0315a:00140000
#03252:0013
#0335b:0013
#03452:0013
#04052:14141400
#0485b:53
#04952:63
#05659:00140000
#0565a:0014
#05658:14
#05754:14
#05753:00140000
#05752:0014
#05858:14
#05859:00140000
#0585a:0014
#0605a:14141414
#06152:14141414
#0625a:1414
#06252:00140014
#00452:13
#01652:0013
#0185b:0013
#01955:53535300
#01952:0023002300230000
#02052:0013
#0225b:0013
#02555:13
#02952:13
#0245b:0013
#02652:0013
#0285b:0013
#03052:0053
#0365b:0013
#0385b:0013
#03752:0013
#0415a:14141400
#04254:00140000
#04252:1414
#04358:00140000
#0435a:1414
#04452:1414
#0445a:00140000
#0455a:1414
#04552:00140000
#04652:14
#04653:00140000
#04654:0014
#04655:00000014
#05058:63
#05155:53
#05258:53
#05355:63
#0545b:63
#05954:14
#05953:00140000
#05952:0014
#07358:53
#08052:13
#008320:1333
#008350:00330023
#009380:1323
#0093b0:00330000
#0103b0:1333
#010380:00330023
#011350:1323
#011320:00330000
#012350:1333
#012320:00330023
#0133b0:1323
#013380:00330000
#014380:1333
#0143b0:00330023
#015320:0014
#015330:000000000000003400000034
#015340:000000003434
#015350:00000034
#016320:24
#019350:13333323
#019320:0033003300330000
#0233a0:0014
#023390:000000000000003400000034
#023380:000000003434
#023370:00000034
#0243a0:24
#027380:13
#0273b0:0033230000000000
#027321:00130000
#027351:0000003323000000
#027380:0013
#0273b0:0000000000332300
#030320:0013
#030350:00000023
#031340:000000000000143434003434
#031320:00000034
#032340:24
#0353b0:1333003323000000
#035380:00330000
#039320:0014
#039330:000000000000003400000034
#039340:000000003434
#039350:00000034
#040320:24
#0483b0:13
#048380:0033
#049380:23
#049321:13
#049351:0033
#050351:23
#050380:13
#0503b0:0033
#0513b0:23
#051351:13
#051321:0033
#052321:23
#052380:13
#0523b0:00332300
#053350:13
#053320:00332300
#0543b0:13
#054380:00332300
#055380:000000000000143434003434
#0553a0:00000034
#056380:24
#0643b0:1333
#064380:00330023
#065350:1323
#065320:00330000
#066320:1333
#066350:00330023
#067380:1323
#0673b0:00330000
#068380:1333
#0683b0:00330023
#069320:1323
#069350:00330000
#070350:1333
#070320:00330023
#0713a0:0014
#071390:000000000000003400000034
#071380:000000003434
#071370:00000034
#0723a0:24
#073380:13
#0733b0:0023
#075350:1333
#075320:00330033
#076350:23
#079320:0013
#079330:000000000000003300000033
#079340:000000003333
#079350:00000033
#080320:23
#0769b0:00000013
#077970:23
#078920:00000013
#079960:23
