This file was generated by Ched 2.7.0.0.
#TITLE ""
#ARTIST ""
#DESIGNER ""
#DIFFICULTY 0
#PLAYLEVEL
#SONGID ""
#WAVE ""
#WAVEOFFSET 0
#JACKET ""
#REQUEST "ticks_per_beat 480"
#00002: 4
#BPM01: 185
#00008: 01
#TIL00: ""
#VOLUME: ""
#HISPEED 00
#MEASUREHS 00
#0021a:14
#0031a:14
#00412:14
#00512:14
#00618:14
#00714:14
#0121a:14
#01214:0014
#01318:14
#01412:14
#01418:0014
#01514:14
#0161a:14
#01614:0014
#01718:14
#01812:14
#0181a:0014
#01914:14
#0201a:14
#02012:0014
#02118:14
#02212:14
#0221a:0014
#02314:14
#02418:14
#02414:0014
#02518:14
#03412:14
#03512:14
#03618:14
#03718:14
#03814:14
#03914:14
#04212:14
#04210:41
#04318:14
#04414:14
#0451a:14
#04612:14
#04718:14
#0501a:14
#05114:14
#05218:14
#05312:14
#05814:0014
#05818:14
#05918:14
#05914:0014
#06218:0014
#06214:14
#06314:14
#06318:0014
#06612:0016
#06618:26
#0661f:21
#06718:16
#06712:0016
#06818:1616
#06912:1616
#06910:41
#07018:16
#07012:0016
#07118:16
#07112:0016
#07412:16
#07418:0016
#07512:16
#07518:0016
#07612:1616
#07718:1616
#07812:16
#07818:0016
#07912:16
#07918:0016
#08512:14
#0861a:14
#08614:0014
#08610:41
#08718:14
#08712:0014
#08818:1414
#08914:1414
#0991a:14
#10014:14
#10118:14
#10212:14
#1031a:14
#10312:0014
#0571f:0011
#01012:26
#01018:0026
#01010:41
#02710:41
#09810:41
#008380:14
#009380:24
#011320:1626
#026320:14
#027320:24
#028380:14
#029380:24
#030340:14
#031340:24
#0323a0:14
#0333a0:24
#0403a0:14
#040380:0054
#041380:24
#048340:14
#049340:24
#0543a0:14
#0553a0:24
#056320:14
#057320:24
#0603a0:14
#0613a0:24
#064320:14
#065320:24
#072380:16
#073380:26
#080320:16
#081320:26
#0823a0:14
#083380:34
#084380:24
#0903a0:14
#0913a0:24
#092320:14
#093320:24
#094380:14
#095380:24
#096340:14
#097320:34
#098320:24
#104380:0014
#1053a0:0034
#1063a0:0024
