This file was generated by Ched 2.7.0.0.
#TITLE ""
#ARTIST ""
#DESIGNER ""
#DIFFICULTY 0
#PLAYLEVEL
#SONGID ""
#WAVE ""
#WAVEOFFSET 0
#JACKET ""
#REQUEST "ticks_per_beat 480"
#00002: 4
#BPM01: 185
#00008: 01
#TIL00: ""
#VOLUME: ""
#HISPEED 00
#MEASUREHS 00
#00012:13
#00015:0013
#00112:1300000000260026
#00115:00130000
#00118:00001326
#00216:00140014
#0021a:0014
#00212:16
#00218:26
#00316:00140014
#0031a:2424
#00312:24242424
#00416:00140014
#0041a:1414
#00516:00140014
#0051a:2424
#00512:24242424
#00619:1213
#00618:00120013
#00615:22000023
#00616:00220000
#00614:0023
#00719:1415
#00718:00140014
#00713:24
#00714:00240024
#00712:0025
#0081b:00130000
#00819:14
#00812:2613
#00813:00000014
#00814:00260000
#00816:0026
#00818:00000026
#0091a:14
#00912:26000014000026001600000026000000
#00918:00000026000016002600000026000000
#01016:00140014
#01012:2424
#0101a:24
#01010:41
#01118:0000140000000013
#01114:0000001400000000
#01115:00000013
#0111a:2424
#0121b:0013
#01216:0013
#01219:0000000000130000
#01212:00240013
#01217:00000013
#01214:0000000000000013
#0121a:00240000
#01318:0000000000000014
#0131a:2424
#01316:23242324
#0141a:1414
#01412:1400000014000013
#01418:0000130000130013
#01415:0013001300001300
#0151b:0013001300000000
#01516:00130000
#01518:00001313
#01512:0013
#01515:0000000000000013
#0161b:1313
#01612:13131300
#01617:0000001300000000
#01615:00000013
#01618:0000000000130013
#01715:0000000000140000
#0171a:2400000000140000
#01712:2424
#01716:00230000
#0171b:00230000
#01719:0000002300000000
#01714:0000002300000000
#01717:0024
#01812:1414
#0181a:1414
#01815:0000130000130013
#01818:0013001300001300
#0181b:0000000000000013
#01912:0013001300001400
#01917:00130000
#01915:0013
#0191b:0013
#01919:0000000000000013
#0191a:00000014
#01914:0000000000000013
#0201a:14000000000000000000000000000000005300000000000000000000000000001400000000000000000000000000000000530000000000000000000000000000
#02012:14131413
#0201b:00130013
#02013:00000000000000000000000000000000005300000000000000000000000000000000000000000000000000000000000000530000000000000000000000000000
#02014:0000000000000000005300000000000000000000000000000053000000000000
#02019:0000000000000000005300000000000000000000000000000053000000000000
#02119:0000000000000013
#0211a:2424
#02116:23242324
#0221a:1414
#02212:1400000014000013
#02218:0000130000130013
#02215:0013001300001300
#0231b:0013001300000000
#02316:00130000
#02318:0013
#02312:00001314
#0231a:00000014
#02314:0000000000000013
#02319:0000000000000013
#02412:1400000014000013
#0241a:14
#02415:00001300130000000000001300000000
#02418:00000013000000000000130013000000
#0241b:0000001300000000
#0251a:14002424
#02512:0013130000240000
#02518:00000013000000000000000000000000
#0251b:0000001300000000
#02515:00000000000000130000000000000000
#02612:2313000013000000
#02618:0000130000000013
#02615:0000001300001300
#0261b:2300000013130000
#02712:14141414
#0271b:2323
#02717:00230023
#02710:41
#0281b:2313000013000000
#02815:0000130000000013
#02818:0000001300001300
#02812:2300000013130000
#02912:14141414
#0291b:2323
#02917:00230023
#03015:0013000000130000
#0301b:23131313
#03018:0000001300000013
#03012:23131313
#03112:14141414
#0311b:2323
#03117:00230023
#0321b:1300131313000000
#03216:1300131313000000
#03212:0000000000130000
#03217:0000000000130000
#03315:0000000000140000
#0331a:0000000000140000
#03312:2400242424000000
#03317:2400242424000000
#0341a:1414
#03416:1313
#03412:00140014
#03417:00130013
#0361a:14141400
#03615:0014000000000000
#03612:14141400
#03617:0000001400000000
#03616:00000014
#0361b:00000013
#03716:00000014
#03712:24242423
#03717:0024000000000000
#0371a:24242400
#03715:0000002400000000
#03812:1413
#03814:0013000000130000
#0381b:00130013
#03815:00130000
#03819:0000001300000000
#03817:0013
#04012:1400001400131300
#0401b:0013130000000000
#04016:00000013000000000000000000000000
#0401a:0000000014000014
#04017:00000000000000000000001300000000
#04117:00140000001400000014000000000000
#04116:2414141414140000
#04115:00000014000000140000001400000000
#04112:24000024
#04216:13
#0421b:13
#04217:0013
#04212:0013
#04210:41
#04312:1300001300000000
#04315:0013000000130013
#04318:00130013
#0431b:1300001300000000
#04412:13130000
#0441b:00001313
#04415:0000000013131300
#04515:1323
#04518:00130023
#0451b:2313
#04512:00230013
#0461b:1300000000000013
#04616:13
#04617:00131300
#04612:0013
#04712:0014000000130000
#04716:00140000
#0471a:0000001400000000
#04715:00000013
#04718:0000000000000013
#0471b:00000013
#04815:1300000013130000
#0481b:1313
#04818:00130013
#04812:00130013
#05016:00130000
#0501b:00131300
#05012:0000000016001313
#05017:0000000000001313
#05018:26
#05116:0013001300000000
#0511b:0000131300000013
#05112:0000000000130000
#05117:0000000000130000
#05216:1313
#0521b:13
#05217:00130013
#05214:0000000000130000
#05212:00000013
#05219:0000000000000013
#0531b:1313
#05312:00130023
#05319:0000000000130000
#05317:00230013
#05316:2323
#05314:0000000000230000
#0541a:14
#05415:13
#05417:00140000
#05512:14
#05515:00140013
#0551a:0000001400000000
#05518:0000000000000013
#05612:13
#0561b:13130000
#05616:00130000
#05717:00130053
#0571b:0013
#05712:00000013
#05716:0013
#0571f:0011
#0571a:00000000000000000053000000000000
#05719:0000000000530000
#05718:00000000000000000000005300000000
#05713:00000000000000000000000000530000
#05714:0000000000000053
#05715:00000000000000000000000000000053
#0601b:1313130000000000
#06016:00130013000000000000000000000000
#06012:0000000013131300
#06017:00000000000000000013001300000000
#06118:13230026
#0611b:0013002300000000
#06112:23132426
#06115:0023001300000000
#0611a:0024
#06415:0013230000000000
#06418:00000013000000000000000000000000
#06419:0000001323000000
#06414:00000000000000130000000000000000
#06413:0000000000132300
#0641a:24000000000000000000001300000000
#0641b:0000000000000013
#06412:24000000000000000000000000000013
#06616:0000000000000000140000000000000000540000000000000000000014000000
#0661a:1400000000000014
#06612:0014
#06615:24
#0661f:21
#06614:00000000000000000000000000000000000000000000000000000000000000000054000000000000000000000000000000000000000000000000000000000000
#06716:0014000014001313
#06712:00140000
#0671a:0000001400000000
#0671b:0000000000001313
#0681b:13000013
#06816:13000013
#06817:0000131313000000
#06812:0000131313000000
#06912:2400000000000014
#0691a:2424
#06917:00230023
#06910:41
#07016:0000000000000000140000000000000000540000000000000000000014000000
#07012:1400000000000014
#0701a:0014
#07017:24
#07018:00000000000000000000000000000000000000000000000000000000000000000054000000000000000000000000000000000000000000000000000000000000
#0711a:00140000
#07112:0000001400001300
#07116:0014000014000000
#07117:00000013
#07119:0000000000000013
#0721b:1313
#07216:1313
#07217:00130013
#07219:0000001300000013
#07214:0000000000130000
#07212:00000013
#07315:2400002400140000
#0731a:2400002400140000
#07317:00242400
#07312:00242400
#07416:0000000000000000140000000000000000540000000000000000000000000000
#07412:14000014
#0741a:0000000014000014
#07415:0000000000000013
#0741b:00130000
#07417:24000013
#07418:00000000000000000000000000000000000000000000000000000000000000000054000000000000000000000000000000000000000000000000000000000000
#07512:0014000014000014
#0751a:00141400
#07516:0000001400000000
#07517:14000014
#0761b:1313
#07617:00130013
#07612:0014001400140014
#0761a:00530000000000000000000000000000000000000000000000000000000000000053000000000000000000000000000000000000000000000000000000000000
#07619:0053000000000000000000000000000000530000000000000000000000000000
#07719:0000000000000013
#07712:24
#0771a:2424
#07717:00230023
#07816:0000000000000000140000000000000000540000000000001300000000000000
#0781a:14000014
#07812:0000130014000014
#07818:0000000000000013
#07815:24
#07814:00000000000000000000000000000000000000000000000000000000000000000054000000000000000000000000000000000000000000000000000000000000
#0791a:0014000014000000
#07912:00141400
#07916:0000001400000000
#07915:14000013
#07918:0000000000000013
#08018:0013001300130000
#08015:00131300
#08012:24000014
#08016:0000000000000014
#0801a:24
#08115:0014000000000000
#08117:0000001400000000
#08112:24002414
#0811a:24240000
#08216:14
#08218:00260000
#08314:16
#08312:00000016
#08412:1353
#0841b:1300130013000053
#08413:00530000000000530000000000000000
#08414:0053005300000000
#08415:00000053005300000000000000000000
#08416:00530000
#0841a:00000000000000000053000000000000
#08419:00000000000000000000530000530000
#08418:00000000000000000000005300000000
#08417:00000053
#0861a:1414
#08616:00140014
#08610:41
#08816:1414
#0881a:00140014
#08812:00000014
#0891a:24000014
#08916:2424
#08912:00240024
#09012:14141400
#09017:0000001400000000
#09016:00000014
#0901a:00141400
#09015:0014000000000000
#09116:00000014
#0911a:24242400
#09117:0024000000000000
#09112:00242400
#09115:0000002400000000
#09212:1414
#09215:0014140000000000
#0921a:00140000
#09217:0000001414000000
#09216:00000014
#09316:00000014
#0931a:2424
#09317:0024240000000000
#09312:00240000
#09315:0000002424000000
#09412:14141400
#09417:00141400
#09415:0013000000140000
#0941b:0000001300000000
#0941a:0000000000140000
#09512:0000002300240014
#0951a:24242400
#09518:0023000000000000
#09515:00242400
#09517:0000000000240000
#09613:14141414141414141414141400000000
#09614:0014000000140000001400000014000000140000001400000000000000000000
#09612:0000001400000014000000140000001400000014000000140000000000000000
#09619:14141414141414141414141400000000
#09618:0014000000140000001400000014000000140000001400000000000000000000
#0961a:0000001400000014000000140000001400000014000000140000000000000000
#09817:00141414
#0981a:24
#09810:41
#09915:00141414
#09912:24
#10017:00140014
#1001a:2414
#10115:00140014
#10112:2414
#10212:1414001424000000
#10217:00140000
#1021a:2400000014140014
#10215:00000014
#10318:00140014001400140000000000000000
#10314:2414241424000000
#0351a:2424
#03516:2323
#03512:00240024
#03517:00230023
#0391a:24
#03919:0023000000230000
#03918:00230000
#03912:00230023
#03914:0000002300000000
#03916:0023
#0391b:0023
#03917:00000023
#04912:0026002600260026
#04918:00002626
#0581a:2424
#05812:00242424
#05817:00230023
#05816:53
#0591a:2424
#05912:2424
#05919:0000232300000000
#05914:0000232300002400
#05918:00000024
#0621a:2424
#06212:24242424
#06217:00230023
#06315:2400002400000000
#0631a:2400002400000000
#06317:00000024000000000000000000000000
#06312:00000024000000002600000000000000
#06318:0026
#0651b:2300002300000000
#06512:00000023000000002300000000000000
#06515:0000002300000000
#06518:00000023000000002300000000000000
#08712:2424
#08716:00240024
#0871a:24
#09718:26262600
#09712:0026002600000000
#10512:00000034343434340000000000000000
#10516:00000000000000000000003434343434
#10416:00000000000000000000003434343434
#1061a:00000034343434340000000000000000
#00258:16
#0025a:0014
#00252:66
#00352:1414
#0035a:1414
#0045a:1414
#0055a:1414
#00552:1414
#00655:12
#00659:1213
#00654:0013
#00759:1415
#00753:14
#00752:0015
#00952:00000036
#00958:00000046
#01056:00240024
#0105a:6444
#01052:3454
#01152:34
#0115a:0044
#0125a:00140000
#01252:00140000
#0135a:1414
#01356:2323
#0145a:14
#01452:0000000014000063
#01458:0000000000000013
#01552:0013
#0165b:63
#01652:13
#0175a:1400000000240000
#01752:14006434
#01755:0000000000240000
#01757:00006414
#01852:14
#0185a:0014
#0185b:0000000000000053
#01855:0000000000000013
#0195b:0013
#02052:1414
#0205a:1414
#0215a:1414
#02156:2323
#0225a:14
#02252:0000000014000063
#02258:0000000000000013
#02352:0013
#0245a:14
#02452:0014
#0255a:14000044
#0275b:1313
#0295b:1313
#0315b:1313
#0325b:13006343
#03256:13006313
#03252:0000000000230000
#03257:0000000000230000
#03352:14006434
#03357:14006414
#0335a:0000000000240000
#03355:0000000000240000
#0345a:1414
#03452:00140014
#0355a:1414
#03552:00140014
#0365a:4444
#03652:00346400
#03656:00000024
#03752:3434
#0375a:00446400
#03756:00000024
#0385b:00000013
#03952:00000013
#04152:34
#04156:6464646464641400
#04157:00240000002400000024000000000000
#04155:00000024000000240000002400000000
#04256:63
#0425b:63
#04257:0053
#04252:0053
#0435b:0000001300000000
#04352:0000001300000000
#04452:13
#0445b:0013
#0465b:1300000000000063
#04656:63
#04652:0013
#04657:0053
#0475a:0000001400000000
#0485b:1313
#04852:00130013
#05058:46
#05052:0036
#05057:0000000000000063
#0515b:0000001300000000
#05156:0000001300000000
#05152:0000000000130000
#05157:0000000000130000
#05256:53
#05257:00630000
#0535b:13
#05352:00130000
#05357:00000013
#0545a:6444
#05457:00240000
#05455:13
#05558:13
#05552:5434
#05555:00240000
#05652:13
#0565b:13
#05757:00130000
#05752:00130000
#0585a:1414
#0595a:1414
#05952:1414
#05958:00000044
#05954:00000034
#0605b:00130000
#06052:00000013
#0615a:0014
#06152:00001436
#06158:00000046
#0625a:1414
#06358:0016
#06352:0016
#0655b:13
#06554:00000044
#0655a:00000044
#0665a:6444
#06656:0000240000000064
#06655:34
#06756:0014
#0685b:13000013
#06856:13000013
#06857:0013
#06852:0013
#0695a:1414
#07056:0000240000000054
#07052:5434
#07057:44
#07156:0014
#0725b:1313
#07256:63
#07252:00000013
#07355:1400000000240000
#0735a:1400000000240000
#07357:00006414
#07352:00006434
#07456:00240000
#07452:5434
#0745a:0000000000000054
#07457:44
#0755a:0014
#07557:24
#07552:0014
#0775a:1414
#07856:00240000
#0785a:6444
#07852:0000000000000064
#07855:34
#07952:0014
#07955:24
#0795a:0014
#0815a:44640014
#08152:64340064
#08155:0024000000000000
#08157:0000002400000000
#08256:24
#08258:00660000
#08252:00340000
#08354:26
#08555:00000013
#08558:00000013
#0845b:0000000000000013
#0865a:1414
#08752:1414
#08856:1414
#08852:00000064
#08956:1414
#0895a:00000054
#09052:0054
#09056:00000024
#0905a:0014
#09156:00000024
#09152:0014
#0915a:0064
#09252:0054
#09256:00000024
#09257:0014
#09356:00000024
#0935a:0064
#09355:0014
#0945a:0000000000140000
#09455:0000000000640000
#09552:0000000000140000
#09557:0000000000640000
#09653:64646464646464646464646414000000
#09654:0024000000240000002400000024000000240000002400000000000000000000
#09652:0000002400000024000000240000002400000024000000240000000000000000
#09659:54545454545454545454545414000000
#09658:0024000000240000002400000024000000240000002400000000000000000000
#0965a:0000002400000024000000240000002400000024000000240000000000000000
#09758:46464600
#09752:0036003600000000
#09952:14
#1005a:14
#10152:14
#1025a:14
#10252:0014
#0985a:14
#10354:0014
#10652:0014
#1065a:0014
#002320:1654000000000000
#003320:24
#004320:14
#005320:24
#0103a0:1424
#010360:00540000
#010321:0014
#010361:00000054
#011321:24
#012321:14240000
#0123a0:14240000
#013360:13
#013320:00230000
#013360:0013
#013320:00000023
#014320:0000000000000013
#015360:0023000000000000
#0163b0:13
#016370:00230000
#017320:00001424
#017350:0000000000540000
#017371:00001424
#0173a1:0000000000540000
#0183b1:0000000000000013
#019371:0023000000000000
#021361:13
#021321:00230000
#021361:0013
#021321:00000023
#022321:0000000000000013
#023361:0023000000000000
#032361:00001323
#032321:0000000000530000
#0323b0:00001323
#032370:0000000000530000
#033320:00001424
#033350:0000000000540000
#033371:00001424
#0333a1:0000000000540000
#036321:0014
#036361:00000054
#037321:24
#0373a1:0014
#037361:00000054
#0383a1:24
#038361:00000013
#039361:23
#039371:00000013
#040371:23
#041361:1454545454542400
#041371:00540000005400000054000000000000
#041351:00000054000000540000005400000000
#042361:13
#042321:00230000
#0423b0:13
#042370:00230000
#042370:0013
#0423b0:00000023
#042321:0013
#042361:00000023
#044381:13230000
#046361:13
#046321:00230000
#046371:0013
#0463b1:00000023
#046360:0000000000001323
#0463b1:0000000000000013
#047371:0023000000000000
#048381:0000000000000013
#049381:0023000000000000
#050371:0000000000000013
#0513b1:0023000000000000
#052361:13
#052321:00230000
#052370:00130000
#0523b0:0023
#0543a0:1424
#054370:00540000
#054351:00001323
#054380:00000013
#055380:23
#055321:1424
#055351:00540000
#0553a0:00001424
#056320:0013
#056360:00000033
#057320:33230000
#056371:0013
#0563b1:00000033
#057371:23
#065380:00000000000000001300005300000000
#0653a0:00000024
#065321:00000000000000001300005300000000
#065341:00000024
#0663a1:1424
#066361:00540000
#066361:0000000000000014
#067321:0024000000000000
#069321:14000024
#070321:1424
#070361:00540000
#070361:0000000000000014
#0713a1:0024000000000000
#072361:13
#072321:00230000
#073321:00001424
#073351:0000000000540000
#073370:00001424
#0733a0:0000000000540000
#074320:1424
#074360:00540000
#0743a0:0000000000000014
#075370:54
#0753a0:0024000000000000
#077320:14000024
#0783a0:1424
#078360:00540000
#078320:0000000000000014
#079350:54
#079320:0024000000000000
#081320:14240000
#081350:0054000000000000
#0813a1:00143424
#081371:0000005400000000
#081320:00001434
#082360:54
#082320:00240000
#082381:00160000
#083341:56
#083381:00000026
#084321:00000013
#084361:00000000000000000000000000003353
#084371:0000000000000000000000000000000000000000000000000000000000530053
#085361:53532300000000000000000000000000
#085371:0053005300000000000000000000000000000000000000000000000000000000
#0853b0:00001353230000000000000000000000
#0853a0:0000000000530053000000000000000000000000000000000000000000000000
#085321:00000000135323000000000000000000
#085331:0000000000000000005300530000000000000000000000000000000000000000
#085380:00000000000013535353535323000000
#085390:0000000000000000000000000053005300530053005300530000000000000000
#085351:00000000000000001353535323000000
#085341:0000000000000000000000000000000000530053005300530000000000000000
#086321:14000024
#0873a1:14000024
#088321:14000034
#089361:24
#0893a0:14000034
#090360:24
#090320:0014
#090360:00000054
#091320:24
#0913a0:0014
#091360:00000054
#0923a0:24
#092320:0014
#092360:00000054
#093320:24
#0933a0:0014
#093360:00000054
#0943a0:24
#094350:0000000000140000
#095320:24
#095370:0000000000140000
#0953a0:0000000000000024
#096330:14545454545454545454545424000000
#096340:0054000000540000005400000054000000540000005400000000000000000000
#096320:0000005400000054000000540000005400000054000000540000000000000000
#096391:14545454545454545454545424000000
#096381:0054000000540000005400000054000000540000005400000000000000000000
#0963a1:0000005400000054000000540000005400000054000000540000000000000000
#098321:14545454545454545454545454545454
#098331:0054005400540054005400540054005400540054005400540054005400540054
#099321:24
#0993a0:14545454545454545454545454545454
#099390:0054005400540054005400540054005400540054005400540054005400540054
#1003a0:24
#100321:14545454545454545454545454545454
#100331:0054005400540054005400540054005400540054005400540054005400540054
#101321:24
#1013a0:14545454545454545454545454545454
#101390:0054005400540054005400540054005400540054005400540054005400540054
#1023a0:24
#104320:0000000014340000
#104360:00000000000000000000003434343434
#105360:3434000000000000
#105320:00000034343434343400000000000000
#106320:0024
#1043a1:0014
#1053a1:0000000034340000
#105361:00000000000000000000003434343434
#106361:3434000000000000
#1063a1:00000034343434342400000000000000
#0579b0:0013
#057970:00000023
#057921:00000013
#058961:23
#084921:1323
#084961:00530000
#0849b0:0000000013000023
#084970:00000053
