This file was generated by Ched 2.7.0.0.
#TITLE ""
#ARTIST ""
#DESIGNER ""
#DIFFICULTY 0
#PLAYLEVEL
#SONGID ""
#WAVE ""
#WAVEOFFSET 0
#JACKET ""
#REQUEST "ticks_per_beat 480"
#00002: 4
#BPM01: 150
#00008: 01
#TIL00: ""
#VOLUME: ""
#HISPEED 00
#MEASUREHS 00
#00012:00140000
#00014:0014
#00016:00000014
#0001a:24
#00113:00140000
#00115:0014
#00117:00000014
#0011a:24
#00214:00140000
#00216:0014
#00218:00000014
#0021a:24
#00412:0013000000000000
#00415:0000001300000000
#00418:0013
#0041b:00000000130000000033333300000000
#00515:1313
#0051b:0013000000000000
#00512:00000000130000000033333300000000
#00518:0000001300000000
#0071a:14
#00712:0014000000000000
#00718:0000242414000000
#00714:00000000002400240000000014000000
#0061a:1414000000000000
#00612:0000141400000000
#00618:0000000014140000
#00614:0000000000001414
#0081b:2313
#00818:00130013
#00815:0013000000130000
#00812:0000001300000000
#0161b:5313000000000000
#01615:2300131300000013
#01618:0013
#01712:0013000013000000
#01718:2300131300000013
#03614:0014
#03612:00000014
#03616:00140000
#0401b:0013000000000013
#04015:00130000
#04018:0000001300000000
#04012:2413
#0401f:11
#04816:00000015000000000000000000000000
#04819:15
#04815:00000013
#04818:0000000000000013
#04812:0000000000130000
#0481f:21
#04810:0000004100000000
#04918:00000013
#04915:00000015000000000000000000001300
#0491b:0000000000130000
#04912:15
#06218:0000000000000014
#06214:00000000000000000000000000000014
#06219:12
#06215:12
#0621b:00000032000032000000000000000000
#06213:00000032000032000000000000000000
#01815:0000131300000013
#0181b:0013000013000000
#01812:23
#0241b:0013000000130000
#02418:0000001300000013
#02415:0013
#02416:24
#02412:00240024
#03114:00000000002400240000000014000000
#03118:0000242414000000
#0311a:24
#03112:0024000000000000
#05115:0000000000130000
#05118:00000013
#0511b:0000000000000013
#05117:00000014000000000000000000000000
#0511a:14
#0541a:14
#05416:00000034140034000000003414003400
#05412:0014
#00312:00140000
#0031a:24
#00316:0024
#07312:14000000000000001400000000333300
#07313:0000000014000000000000001400000000000000000000000033000000000000
#07314:0000000000000000140000000000000000330000000000000000000000000000
#07315:00000000000000000033330013000000
#07318:00000000240000000033330013000000
#0731a:2400000000000000000000000000000024000000000000000033000000000000
#07319:0000000024000000000000002400000000330000000000000000000000000000
#0731b:00000000000000000000000000333300
#03516:14141414
#00912:1313
#00918:0013000000130000
#00915:00130013
#0091b:0000001300000000
#00910:41
#0101b:2313
#01015:0013000000130000
#01018:00130013
#01012:0000001300000000
#01115:00000000130000000000005300530000
#0111b:0000001300000000
#01118:0013000000000000
#01112:1313
#01113:00000000000000000053000000000053
#01114:0000000000530053
#01116:00000053
#01218:0013000013000000
#01212:5300001300000000
#01215:0000130000130000
#0121b:23000013
#01315:0013000013000000
#01318:0000130000130000
#0131b:0000001300000000
#01312:23000013
#01418:0013000013000000
#01415:0000130000130000
#01412:0000001300000000
#0141b:23000013
#01515:0013001300000000
#01518:00000000130000000000005300530000
#0151b:0013
#01512:23
#0151a:00000000000000000053000000000053
#01519:0000000000530053
#01517:00000053
#01915:00000000000000001300001300000000
#01912:0013000000000000
#01918:0000131300130000
#0191b:23
#02015:0013001300000013
#02012:00130000
#02018:2313
#02010:41
#02115:0013000000000000
#02119:00130000
#02114:0000001300000000
#02118:23
#02218:0013001300000013
#0221b:00130000
#02215:2313
#02312:1314
#02315:0013000000000000
#02318:00130000
#0231b:0000001300000000
#02316:00000000000000000000343400343400
#02612:0013000000130000
#02615:0000001300000013
#02618:1313
#0261a:00240024
#02515:00000000000000000033000000001300
#0251a:00240024
#02514:00330000000000330000330000000000
#02513:00003300000033000000003300000000
#02512:00000033003300000000000000000000
#02816:00140024
#02818:0014
#0281a:24000014
#02814:0024
#02812:00240000
#02916:00140024
#02914:0014
#02912:24000014
#02918:0024
#0291a:00240000
#03212:00141414
#03316:14141414
#0341a:00141414
#03718:0014
#0371a:00000014
#03716:00140000
#03814:0014
#03812:00000014
#03816:00140000
#04112:0013000000000013
#04118:13130000
#04115:0000001300000000
#0411b:0013
#0421b:0013000000000013
#04218:00130000
#04215:1300001300000000
#04212:0013
#04318:1300001300000000
#04312:0013000000000000
#04315:00130000
#0431b:0013
#04412:13
#04414:00130000
#04416:00000000000000001353535353000000
#0441a:24242424
#0451b:13
#04519:00130000
#04517:00000000000000001353535353000000
#04512:24242424
#0461a:2414000000000000
#04612:0000241400000000
#04618:0000000024140000
#04614:0000000000002414
#03012:0000241400000000
#0301a:2414000000000000
#03018:0000000024140000
#03014:0000000000002414
#03010:41
#05017:00000014000000000000000000000000
#0501a:14
#05012:00000000000000000000001400000000
#05015:0014
#05215:00000015000000000000000013000000
#05212:1500000000000013
#05218:0000000000130000
#05316:00000015000000000000000000000000
#05319:15
#05315:0000000000230023
#05318:00000023
#05519:0000001500000000
#05514:0015
#05518:0000000000150000
#05513:00000015
#05517:0000000000000015
#05615:00000015000000000000000000000000
#05612:15
#05613:0000000000250000
#05618:00000025
#05614:0000000000000025
#05716:00000015000000000000000000000000
#0571a:0000000000140000
#05714:00000014
#05718:0000000000000014
#05719:25
#05815:00000014000000000000000000000000
#05812:14
#0581a:00000000000000000000001400000000
#05817:0014
#06012:0000001414000033
#06014:00000000000000000000003414000000
#0601a:0000001414000000
#06018:00000000000000000000003414000000
#0601b:0000000000000033
#06112:13
#06115:00000033130000000000000000000000
#06113:0013
#0611b:13
#06118:00000033130000000000000000000000
#0611a:0013
#06114:0000003300000000
#06119:0000003300000000
#06812:2313
#06818:0000130000130000
#0681b:1300001300000000
#06815:0013000000001300
#06915:00130000
#06912:1300001300000000
#06918:00001300000000000000005300530000
#0691b:2313
#0691a:00000000000000000053000000000053
#06919:0000000000530053
#06917:00000053
#07018:0013000000130013
#07015:00130013
#0701b:5300001300000000
#07012:2313
#07115:0013000000130013
#07118:00130013
#07112:1300001300000000
#0711b:2313
#06518:14000034000034000000000000000000
#0651a:00000014
#06514:24000034000034000000000000000000
#06512:00000024
#06615:0000000000000013
#06618:0000000000000013
#0661a:14
#06612:24
#0721a:2414000000000000
#07212:0000241400000000
#07218:0000000024140000
#07214:0000000000002414
#05918:00140000
#05914:00000014
#06416:28
#02712:00240024
#02719:00330000000000330000330000000000
#0271a:00003300000033000000003300000000
#0271b:00000033003300000000000000000000
#02718:00000000000000000033000000000000
#0471a:24
#04712:0024000000000000
#04713:006a
#03910:41
#06310:41
#0005a:14
#00458:0063
#0045b:00000013
#00453:1a
#01752:0053
#01755:00000000000000000000001300000000
#02456:14
#04052:1463
#04055:00000000000000000000001300000000
#04859:6500001500000000
#04856:00000065000000000000000000000000
#0285a:14
#05456:00240024
#0545a:54
#05452:0064
#05759:6500001500000000
#05756:00000065000000000000000000000000
#06456:18
#05552:14
#00555:0053
#00552:00000013
#00758:0014
#00754:00000014
#00858:00000013
#00955:00000013
#01058:00000013
#0125b:00000013
#01352:00000013
#0145b:00000013
#01658:0053
#0165b:00000000000000000000001300000000
#01955:00000000000000000000005300000000
#01952:0000000000000013
#01858:00000000000000000000001300000000
#0185b:0053
#02058:0053
#0205b:00000000000000000000001300000000
#02255:0053
#02252:00000000000000000000001300000000
#02352:0064
#02952:14
#0415b:0053
#04158:00000000000000000000001300000000
#0435b:0053
#04358:00000000000000000000001300000000
#04252:0063
#04255:00000000000000000000001300000000
#04955:00000055000000000000000000000000
#04952:5500001500000000
#05057:00000064000000000000000000000000
#0505a:64
#05052:00000000000000000000006400000000
#05055:0064
#05157:00000064000000000000000000000000
#0515a:6400001400000000
#05255:00000055000000000000000000000000
#05252:5500001500000000
#05356:00000065000000000000000000000000
#05359:6500001500000000
#05655:00000055000000000000000000000000
#05652:5500001500000000
#05855:00000054000000000000000000000000
#05852:54
#0585a:00000000000000000000005400000000
#05857:0054
#0605a:1464
#06052:0054
#06054:00000054
#06058:00000064
#06152:53
#06155:00530000
#06153:0053
#06156:00000012
#0615b:63
#06158:00630012
#0615a:0063
#06259:52
#0625a:0014
#06255:62
#06252:0014
#06855:00000013
#07055:00000013
#07158:00000013
#07352:0054
#07355:00000053
#0735a:0064
#07358:00000063
#07452:13
#0745b:13
#06554:54
#06558:54
#0665a:54
#06652:54
#06655:0000000000000023
#06658:0000000000000023
#06752:00000014
#0675a:00000014
#03158:0014
#03154:00000014
#003360:000000000000000000000000000000000000000000000000000000000000000000000000000000000000000000000000000000000000000000000000000000000000000000000000000000000000000000000000000000000000000000000000000000000000000000000000000000000000000000000000000000000000000000000000000000000000000000000000000000000000000000000000000000000000000000000000000000000000000000000000000000000000000000000000000000000000000000000000000000000000000000000000000000000000000000000000000000000000000000000000000000000000000000000000000000000000000000000000000000000000000000000000000000000000000000000000000000000000000000000000000000000000000000000000000000000000000000000000000000000000000000000000000000000000000000000000000000000000000000000000000000000000000000000000000000000000000000000000000000000000000000000000000000000000000000000000000000000000000000000000000000000000000000000000000000000000000000000000000000000000000000000000000000000000000000000000000000000000000000000000000000000000000000000000000000000000000000000000000000000000000000000000000000000000000000000000000000000000000000000000000000000000000000000000000000000000000000000000000000000000000000000000000000000000000000000000000000000000000000000000000000000000000000000000000000000000000000000000000000000000000000000000000000000000000000000000000000000000000000000000000000000000000000000000000000000000000000000000000000000000000000000000000000000000000000000000000000000000000000000000000000000000000000000000000000000000000000000000000000000000000000000000000000000000000000000000000000000000000000000000000000000000000000000000000000000000000000000000000000000000000000000000000000000000000000000000000000000000000000000000000000000000000000000000000000000000000000000000000000000000000000000000000000000000000000000000000000000000000000000000000000000000000000000000000000000000000000000000000000000000000000000000000000000000000000000000000000000000000000000000140000000000000000000000000000000000000000000000000000000000000000000000000000000000000000000000000000000000000000000000000000000000000000000000000000000000000000000000000000000000000000000000000000000000000000000000000000000000000000000000000000000000000000000000000000000000000000000000000000000000000000000000000000000000000000000000000000000000000000000000000000000000000000000000000000000000000000000000000000000000000000000000000000000000000000000000000000000000000000000000000000000000000000000000000000000000000000000000000000000000000000000000000000000000000000000000000000000000000000000000000000000000000000000000000000000000000000000000000000000000000000000000000000000000000000000000000000000000000000000000340000000000000000000000000000000000000000000000000000000000000000000000000000000000000000000000000000000000000000000000000000000000000000000000000000000000000000000000000000000000000000000000000000000000000000000000000000000000000000000000000000000000000000000000000000000000000000000000000000000000000000000000000000000000000000000000000000000000000000000000000000000000000000000000000000000000000000000000000000000000000000000000000000000000000000000000000000000000000000000054000000000000000000000000000000000000000000000000000000000000000000000000000000000000000000000000000000000000000000000000000000000000000000000000000000000000000000000000000000000000000000000000000000000000000000000000000000000000000000000000000000000000000000000000000000000000000000000000000000000000000000000000000000000000000000000000000000000000000000000000000000000000000000000000000000000000000000000000000000000000000000000000000000000000000000000000000000000000000000000000000000000000000000000000000000000000000000000000000000000000000000000000000000000000000000000000000000000000000000000000000000000000000000000000000000000000000000000000000000000000000000000000000000000000000000000000000000000000000000000000
#003350:000000000000000000000000000000000000000000000000000000000000000000000000000000000000000000000000000000000000000000000000000000000000000000000000000000000000000000000000000000000000000000000000000000000000000000000000000000000000000000000000000000000000000000000000000000000000000000000000000000000000000000000000000000000000000000000000000000000000000000000000000000000000000000000000000000000000000000000000000000000000000000000000000000000000000000000000000000000000000000000000000000000000000000000000000000000000000000000000000000000000000000000000000000000000000000000000000000000000000000000000000000000000000000000000000000000000000000000000000000000000000000000000000000000000000000000000000000000000000000000000000000000000000000000000000000000000000000000000000000000000000000000000000000000000000000000000000000000000000000000000000000000000000000000000000000000000000000000000000000000000000000000000000000000000000000000000000000000000000000000000000000000000000000000000000000000000000000000000000000000000000000000000000000000000000000000000000000000000000000000000000000000000000000000000000000000000000000000000000000000000000000000000000000000000000000000000000000000000000000000000000000000000000000000000000000000000000000000000000000000000000000000000000000000000000000000000000000000000000000000000000000000000000000000000000000000000000000000000000000000000000000000000000000000000000000000000000000000000000000000000000000000000000000000000000000000000000000000000000000000000000000000000000000000000000000000000000000000000000000000000000000000000000000000000000000000000000000000000000000000000000000000000000000000000000000000000000000000000000000000000000000000000000000000000000000000000000000000000000000000000000000000000000000000000000000000000000000000000000000000000000000000000000000000000000000000000000000000000000000000000000000000000000000000000000000000000000000000000000000000000000000000000000000000000000000000000000000000000000000000000000000000000000000000000000000000000000000000000000000000000000000000000000000000000000000000000000000000000000000000000000000000000000000000000000000000000000000000000000000000000000000000000000000000000000000000000000000000000000000000000000000000000000000000000000000000000000000000000000000000000000000000000000000000000000000000000000000000000000000000000000000000000000000000000000000000000000000000000000000000000000000000000000000000000000000000000000000000000000000000000000000000000000000000000000000000000000000000000000000000000000000000000000000000000000000000000000000000000000000000000000000000000000000000000000000000000000000000000000000000000000000000000000000000000000000000000000000000000000000000000000000000000000000000000000000000000000000000000000000000000000000000000000000000000000000000000000000000000000000000000000000000000000000000000000000000000000000000000000000000000000000000000000000000000000000000000000000000000000000000000000000000000000000000000000000000000000000000000000000000000000000000000000000000000000000000000000000000000000000000000000000000000000000000000000000000000000000000000000000000000360000000000000000000000000000000000000000000000000000000000000000000000000000000000000000000000000000000000000000000000000000000000000000000000000000000000000000000000000000000000000000000000000000000000000000000000000000000000000000000056000000000000000000000000000000000000000000000000000000000000000000000000000000000000000000000000000000000000000000000000000000000000000000000000000000000000000000000000000000000000000000000000000000000000000000000000000000000000000000000000000000000000000000000000000000000000000000000000000000000000000000000000000000000000000000000000000000000000000000000000000000000000000000000000000000000000000000000000000000000000000000000000000000000000000000000000000000000000000000000000
#003340:000000000000000000000000000000000000000000000000000000000000000000000000000000000000000000000000000000000000000000000000000000000000000000000000000000000000000000000000000000000000000000000000000000000000000000000000000000000000000000000000000000000000000000000000000000000000000000000000000000000000000000000000000000000000000000000000000000000000000000000000000000000000000000000000000000000000000000000000000000000000000000000000000000000000000000000000000000000000000000000000000000000000000000000000000000000000000000000000000000000000000000000000000000000000000000000000000000000000000000000000000000000000000000000000000000000000000000000000000000000000000000000000000000000000000000000000000000000000000000000000000000000000000000000000000000000000000000000000000000000000000000000000000000000000000000000000000000000000000000000000000000000000000000000000000000000000000000000000000000000000000000000000000000000000000000000000000000000000000000000000000000000000000000000000000000000000000000000000000000000000000000000000000000000000000000000000000000000000000000000000000000000000000000000000000000000000000000000000000000000000000000000000000000000000000000000000000000000000000000000000000000000000000000000000000000000000000000000000000000000000000000000000000000000000000000000000000000000000000000000000000000000000000000000000000000000000000000000000000000000000000000000000000000000000000000000000000000000000000000000000000000000000000000000000000000000000000000000000000000000000000000000000000000000000000000000000000000000000000000000000000000000000000000000000000000000000000000000000000000000000000000000000000000000000000000000000000000000000000000000000000000000000000000000000000000000000000000000000000000000000000000000000000000000000000000000000000000000000000000000000000000000000000000000000000000000000000000000000000000000000000000000000000000000000000000000000000000000000000000000000000000000000000000000000000000000000000000000000000000000000000000000000000000000000000000000000000000000000000000000000000000000000000000000000000000000000000000000000000000000000000000000000000000000000000000000000000000000000000000000000000000000000000000000000000000000000000000000000000000000000000000000000000000000000000000000000000000000000000000000000000000000000000000000000000000000000000000000000000000000000000000000000000000000000000000000000000000000000000000000000000000000000000000000000000000000000000000000000000000000000000000000000000000000000000000000000000000000000000000000000000000000000000000000000000000000000000000000000000000000000000000000000000000000000000000000000000000000000000000000000000000000000000000000000000000000000000000000000000000000000000000000000000000000000000000000000000000000000000000000000000000000000000000000000000000000000000000000000000000000000000000000000000000000000000000000000000000000000000000000000000000000000000000000000000000000000000000000000000000000000000000000000000000000000000000000000000000000000000000000000000000000000000000000000000000000000000000000000000000000000000000000000000000000000000000000000000000000000000000000000000000000000000000000000000000000000000000000000000000000000000000000000000000000000000000000000000000000000000000000000000000000000000000000000000000000000000000000000000000000000000000000000000000000000000000000000000000000000000000000000380000000000000000000000000000000000000000000000000000000000000000000000000000000000000000000000000000000000000000000000000000000000000000000000000000000000000000000000000000000000000000000000000000000000000000000000000000000000000000000058000000000000000000000000000000000000000000000000000000000000000000000000000000000000000000000000000000000000000000000000000000000000000000000000000000000000000000000000000000000000000000000000000000000000000000000000000000000000000000000000
#003330:0000000000000000000000000000003a
#004330:2a
#004380:0013
#0043b0:00000000000000000033333323000000
#005350:0013
#005320:00000000000000000033333323000000
#016380:0013
#0163b0:00000000000000000000002300000000
#017320:0013
#017350:00000000000000000000002300000000
#0183b0:0013
#018380:00000000000000000000002300000000
#019350:00000000000000000000001300000000
#019320:0000000000000023
#020380:0013
#0203b0:00000000000000000000002300000000
#021320:00000000000000001300003300000000
#021350:00000000000000000000000000532300
#0213b1:00000000000000001300003300000000
#021381:00000000000000000000000000532300
#022351:0013
#022321:00000000000000000000002300000000
#023321:0014
#023361:00000000000000000000343400343400
#024361:24
#025351:13000000000000003333000000000000
#025341:00330000000000330000330000000000
#025331:00003300000033000000003300000000
#025321:00000033333300000000000023000000
#027381:13000000000000003333000000000000
#027391:00330000000000330000330000000000
#0273a1:00003300000033000000003300000000
#0273b1:00000033333300000000000023000000
#0323a1:14
#0343a1:24
#034320:14
#036320:24
#0363a1:14
#0373a1:24
#037320:14
#038320:24
#0383a1:14
#0393a1:24
#039320:140054340054
#039350:005400340000005400340000
#040320:24
#040320:0013
#040350:00000000000000000000002300000000
#0413b0:0013
#041380:00000000000000000000002300000000
#042320:0013
#042350:00000000000000000000002300000000
#0433b0:0013
#043380:00000000000000000000002300000000
#047360:000000000000000000000000000000000000000000000000000000000000000000000000000000000000000000000000000000000000000000000000000000000000000000000000000000000000000000000000000000000000000000000000000000000000000000000000000000000000000000000000000000000000000000000000000000000000000000000000000000000000000000000000000000000000000000000000000000000000000000000000000000000000000000000000000000000000000000000000000000000000000000000000000000000000000000000000000000000000000000000000140000000000000000000000000000000000000000000000000000000000000000000000000000000000000000000000000000000000000000000054000000000000000000000000000000000000000000000000000000000000000000000000000000000000000000000000000000000000000000000000000000000000000000000000000000000000000000000000000000000000000000000000000000000000000000000000000000000000000000000000000000000000000000000000000000000000000000000000000000000000000000000000000000000000000000000000000000000000000000000000000000000000000000000000000000000000000000000000000000000000000000000000000000000000000000000000000000000000000000000000000000000000000000000000000000000000000000000000000000000000000000000000000000000000000000000000000000000000000000000000000000000000000000000000000000000000000000000000000000000000000000000000000000000000000000000000000000000000000000000000000000000000000000000000000000000000000000000000000000000000000000000000000000000000000000000000000000000000000000000000000000000000000000000000000000000000000000000000000000000000000000000000000000000000000000000000000000000000000000000000000000000000000000000000000000000000000000000000000000000000000000000000000000000000000000000000000000000000000000000000000000000000000000000000000000000000000000000000000000000000000000000000000000000000000000000000000000000000000000000000000000000000000000000000000000000000000000000000000000000000000000000000000000000000000000000000000000000000000000000000
#047350:000000000000000000000000000000000000000000000000000000000000000000000000000000000000000000000000000000000000000000000000000000000000000000000000000000000000000000000000000000000000000000000000000000000000000000000000000000000000000000000000000000000000000000000000000000000000000000000000000000000000000000000000000000000000000000000000000000000000000000000000000000000000000000000000000000000000000000000000000000000000000000000000000000000000000000000000000000000000000000000000000000000000000000000000000000000000000000000000000000000000000000000000000000000000000000000000000000000000000000000000360000000000000000000000000000000000000000000000000000000000000000000000000000000000000000000000000000000000000000000056000000000000000000000000000000000000000000000000000000000000000000000000000000000000000000000000000000000000000000000000000000000000000000000000000000000000000000000000000000000000000000000000000000000000000000000000000000000000000000000000000000000000000000000000000000000000000000000000000000000000000000000000000000000000000000000000000000000000000000000000000000000000000000000000000000000000000000000000000000000000000000000000000000000000000000000000000000000000000000000000000000000000000000000000000000000000000000000000000000000000000000000000000000000000000000000000000000000000000000000000000000000000000000000000000000000000000000000000000000000000000000000000000000000000000000000000000000000000000000000000000000000000000000000000000000000000000000000000000000000000000000000000000000000000000000000000000000000000000000000000000000000000000000000000000000000000000000000000000000000000000000000000000000000000000000000000000000000000000000000000000000000000000000000000000000000000000000000000000000000000000000000000000000000000000000000000000000000000000000000000000000000000000000000000000000000000000000000000000000000000000000000000000000000000000000000000000000000000000000000000
#047340:000000000000000000000000000000000000000000000000000000000000000000000000000000000000000000000000000000000000000000000000000000000000000000000000000000000000000000000000000000000000000000000000000000000000000000000000000000000000000000000000000000000000000000000000000000000000000000000000000000000000000000000000000000000000000000000000000000000000000000000000000000000000000000000000000000000000000000000000000000000000000000000000000000000000000000000000000000000000000000000000000000000000000000000000000000000000000000000000000000000000000000000000000000000000000000000000000000000000000000000000000000000000000000000000000000000000000000000000000000000000000000000000000000000000000000000000000000000000000000000000380000000000000000000000000000000000000000000000000000000000000000000000000000000000000000000000000000000000000000000058000000000000000000000000000000000000000000000000000000000000000000000000000000000000000000000000000000000000000000000000000000000000000000000000000000000000000000000000000000000000000000000000000000000000000000000000000000000000000000000000000000000000000000000000000000000000000000000000000000000000000000000000000000000000000000000000000000000000000000000000000000000000000000000000000000000000000000000000000000000000000000000000000000000000000000000000000000000000000000000000000000000000000000000000000000000000000000000000000000000000000000000000000000000000000000000000000000000000000000000000000000000000000000000000000000000000000000000000000000000000000000000000000000000000000000000000000000000000000000000000000000000000000000000000000000000000000000000000000000000000000000000000000000000000000000000000000000000000000000000000000000000000000000000000000000000000000000000000000000000000000000000000000000000000000000000000000000000000000000000000000000000000000000000000000000000000000000000000000000000000000000000000000000000000000000000000000000000000000000000000
#047330:000000000000003a2a00000000000000
#048390:1500002500000000
#048360:00000035000000000000000000000000
#049320:1500002500000000
#049350:00000035000000000000000000000000
#0503a0:1400002400000000
#050370:00000034000000000000000000000000
#050350:0000000014000024
#050320:00000000000000000000003400000000
#0513a0:1400002400000000
#051370:00000034000000000000000000000000
#052320:1500002500000000
#052350:00000035000000000000000000000000
#053390:1500002500000000
#053360:00000035000000000000000000000000
#0543a0:1424
#054360:00000034540034000000000000000000
#054321:0014
#054361:00000000000000000000003454003400
#055321:24
#056321:1500002500000000
#056351:00000035000000000000000000000000
#057391:1500002500000000
#057361:00000035000000000000000000000000
#058321:1400002400000000
#058351:00000034000000000000000000000000
#058371:0000000014000024
#0583a1:00000000000000000000003400000000
#059321:1424
#0593a0:0014
#0603a0:24
#060320:0000000014000033
#060340:00000000000000000000003454000000
#061320:33
#061350:00000033530000000000000000000000
#061340:0000003300000000
#061330:0033
#061360:00000022
#0603a1:0014
#060381:00000000000000000000003454000000
#0603b1:0000000000000033
#0613b1:33
#061381:00000033530000000000000022000000
#061391:0000003300000000
#0613a1:0033
#062391:12
#0623b1:00000032000032000000000000000000
#0623a1:0024
#062350:12
#062330:00000032000032000000000000000000
#062320:0024
#063380:14
#064360:28
#065340:14000034000034000000000000000000
#065320:0024
#065381:14000034000034000000000000000000
#0653a1:0024
#066321:14
#066351:0000000000000053
#067321:00000024
#0663a0:14
#066380:0000000000000053
#0673a0:00000024
#073320:00000000000000001400000000333333
#073340:0000000000000000000000000000000000330000000000000000000000000000
#073350:00000000000000000033333333000000
#073330:0000000000000000000000000000000000000000000000000033000000000000
#074320:23
#0733a1:0000000000000000000000000000000014000000000000000033000000000000
#073391:0000000000000000000000000000000000330000000000000000000000000000
#073381:00000000000000000033333333000000
#0733b1:00000000000000000000000000333333
#0743b1:23
#011920:0013
#011960:00000053
#012920:23
#0159b0:0013
#015970:00000053
#0169b0:23
#044960:000000000000000000000000000000000000000000000000000000000000000000000000000000000000000000000000000000000000000000000000000000000000000000000000000000000000000000000000000000000000000000000000000000000000000000000000000000000000000000000000130000000000000000000000000000000000000000000000000000000000000000000000000000000000000000000000000000000000000000005353230000000000000000000000000000000000000000000000000000000000000000000000000000000000000000000000000000000000000000000000
#045970:000000000000000000000000000000000000000000000000000000000000000000000000000000000000000000000000000000000000000000000000000000000000000000000000000000000000000000000000000000000000000000000000000000000000000000000000000000000000000000000000130000000000000000000000000000000000000000000000000000000000000000000000000000000000000000000000000000000000000000005353230000000000000000000000000000000000000000000000000000000000000000000000000000000000000000000000000000000000000000000000
#0699b0:0013
#069970:00000053
#0709b0:23
