This file was generated by Ched 2.7.0.0.
#TITLE ""
#ARTIST ""
#DESIGNER ""
#DIFFICULTY 0
#PLAYLEVEL
#SONGID ""
#WAVE ""
#WAVEOFFSET 0
#JACKET ""
#REQUEST "ticks_per_beat 480"
#00002: 4
#BPM01: 150
#00008: 01
#TIL00: ""
#VOLUME: ""
#HISPEED 00
#MEASUREHS 00
#00018:00140000
#00012:2414
#0011a:1414
#00114:00140000
#00212:14
#00218:00140000
#00214:0014
#00712:00140000
#00718:0014
#00714:00000014
#0071a:14
#0081a:24001414
#00814:00140000
#03114:00000014
#03118:0014
#03112:00140000
#0311a:14
#00314:00140000
#0031a:14
#07312:26160000
#07316:00000016
#07318:0016
#02816:0014
#02819:00000014
#02813:00140000
#02818:26
#05718:0000000000140000
#05714:24000014
#0651a:14001414
#06512:24002424
#06614:00000014
#06618:00000014
#0661a:14
#06612:24
#07214:24140000
#07218:00002515
#00414:00140000
#0041a:0014
#00412:00000014
#00418:24
#00518:14
#00514:00140000
#0051a:0014
#00512:00000014
#00618:14140000
#00614:00001414
#00912:14001414
#00918:00140000
#00910:41
#0101a:14001414
#01014:00140000
#01112:14
#01118:00140000
#01114:0014
#0111a:00000014
#01212:24001414
#01218:00140000
#0131a:14001414
#01314:00140000
#01412:14001414
#01418:00140000
#0151a:14
#01514:00140000
#01518:0014
#01512:00000014
#0161a:14
#01614:00140000
#01712:14
#01718:00140000
#0181a:14
#01814:00140000
#01912:14
#01918:00140000
#02018:1414
#02014:00140000
#02010:41
#02114:1414
#02118:00140000
#0221a:14
#02212:00140000
#02218:0014
#02312:14
#0231a:00140000
#02314:0014
#02418:0014
#02414:00140000
#02412:00000014
#0241a:24
#0251a:1414
#02518:00140000
#02614:0014
#02618:00140000
#0261a:00000014
#02612:24
#02712:1414
#02714:00140000
#02919:00140000
#02916:0014
#02913:00000014
#02912:26
#03018:14140000
#03014:00001414
#03010:41
#03412:14
#03418:00140000
#03414:0014
#0341a:00000014
#0371a:14
#03714:00140000
#03718:0014
#03712:00000014
#0381a:14
#03814:00140000
#03818:0014
#03812:00000014
#0391a:1414
#03918:00140014
#03910:41
#04012:00140000
#04018:00001414
#0401f:11
#0401a:24
#04112:14
#0411a:00140000
#04114:00001414
#04218:14
#04212:00140000
#0421a:00001414
#04314:14
#0431a:00140000
#04312:00001414
#04812:14
#04818:0000000000140000
#04814:00000014
#0481f:21
#04810:0000004100000000
#04914:0000000000140000
#04918:14000014
#05012:14
#05018:00140000
#05014:0014
#0501a:00000014
#05114:14
#05118:00140000
#05112:0014
#0511a:00000014
#05214:14000014
#05218:0000000000140000
#05314:0000000000140000
#05318:00000014
#0531a:14
#05412:14
#0541a:00140000
#05413:0014
#05418:00000014
#05514:14000014
#05518:0014
#05618:14000024
#05614:0000000000240000
#0581a:14
#05817:00140014
#05814:0014
#0591a:14
#05912:00140000
#05918:0014
#05914:00000014
#0601a:14
#06012:0014
#06018:00000014
#06114:14
#0611a:00140000
#06112:0014
#06118:00000014
#06212:0014
#06214:14
#0621a:00140000
#06818:00140000
#06812:00001414
#06814:14
#06918:14
#06914:00140000
#0691a:00001414
#07019:00140000
#07016:0014
#07013:00000014
#07012:26
#07113:00140000
#07116:0014
#07119:00000014
#07118:26
#04416:0014
#04419:00000014
#04413:00140000
#04418:26
#04519:00140000
#04516:0014
#04513:00000014
#04512:26
#04618:14140000
#04614:00001414
#04712:00140000
#0471a:1424
#06414:28
#06310:41
#05754:64
#05752:0000001400000000
#06454:18
#0665a:54
#06652:54
#06654:00000024
#06658:00000024
#03158:0014
#03154:00000014
#00458:14
#00754:00000014
#00758:0014
#02154:0064
#02058:0054
#02258:0054
#02354:0064
#0255a:6464
#02558:00640014
#02752:5454
#02754:00540014
#0395a:6464
#03958:00640064
#0405a:14
#04854:0000001400000000
#04852:54
#05254:64
#05252:0000001400000000
#05554:14
#04958:54
#0495a:0000001400000000
#0535a:64
#05358:0000001400000000
#05658:54
#0565a:0000001400000000
#0605a:14
#06252:0014
#07458:16
#07356:00000066
#07358:0056
#003380:0014
#004380:24
#0163a0:00001424
#017320:00001424
#018380:00001424
#019340:00001424
#020380:0014
#0203a0:00000024
#021340:0014
#021320:00000024
#022380:0014
#0223a0:00000024
#023340:0014
#023320:00000024
#0253a0:1434
#025380:00340024
#027320:1434
#027340:00340024
#0323a0:14340000
#032380:00003434
#0333a0:34340000
#033380:00003424
#035320:14340000
#035340:00003434
#036320:34340000
#036340:00003424
#0393a0:1434
#039380:00340034
#0403a0:24
#048320:14
#048340:00000034000024000000000000000000
#049380:14
#0493a0:00000034000024000000000000000000
#052340:14
#052320:00000034000024000000000000000000
#0533a0:14
#053380:00000034000024000000000000000000
#056380:14
#0563a0:00000034000024000000000000000000
#057340:14
#057320:00000034000024000000000000000000
#063360:14
#064340:28
#066320:14
#066340:00000054
#067320:0024
#0663a1:14
#066381:00000054
#0673a1:0024
#073381:0016
#073361:00000036
#074381:26
