This file was generated by Ched 2.7.0.0.
#TITLE ""
#ARTIST ""
#DESIGNER ""
#DIFFICULTY 0
#PLAYLEVEL
#SONGID ""
#WAVE ""
#WAVEOFFSET 0
#JACKET ""
#REQUEST "ticks_per_beat 480"
#00002: 4
#BPM01: 109
#00008: 01
#TIL00: ""
#VOLUME: ""
#HISPEED 00
#MEASUREHS 00
#00012:12000024
#00018:000000000000000000000000120000000000000000000012
#00014:000000000000000000000012000000000000000000000000
#0001c:12
#0001a:00240000
#00114:00140000
#00112:0016
#00116:12000016
#00118:000000000012000000000012000000000000000000000000
#00212:260000000000000000530013000000000013000000000013
#00215:000000130000001300001300
#00218:000013000013000000000000000000130000000000130000
#0021b:13001313
#00214:000000000000005300000000000000000000000000000000
#00213:005300
#0031b:1300005300001300
#00315:000013000013000000000000130000000000000000000000
#00312:000000000000000000000000003333133333000000000000
#00318:000000000000130000000013000000130000000000000000
#00317:0000000000000013
#00319:000000000000005300000000000000000000000000000000
#0031a:005300
#00615:000000000000000000130013000000000013000000000000
#00612:000000000013000000000000000013000000000000130000
#00618:0000000013130000
#0061b:13000013
#00617:00130000
#00616:13
#00610:41
#01412:1400140013000013
#0141b:53130000
#0141a:00001414
#01418:0013000000130000
#01415:0000001300001300
#0151b:1300001300000000
#01512:0000000013000000000000000000000014000000000000000034343434343434
#01515:14130000
#01518:00140000
#0151a:00001424
#01516:0000000000000000000000000000000000000000000000002434343434343434
#01612:00131300
#01614:0000000000130000
#01619:0000001300000000
#0161b:00130013
#01618:0000000000000013
#01617:0013
#01616:00000013
#01712:1313
#0171b:13130013
#01719:0013000000000000
#01714:0000001300000000
#02417:001300000000000000130000
#02414:000000130000000000000000000000000013000000000000
#02419:000000000013000000000000000000000000000000000000
#02418:000000000000000000000000130000000000000000000013
#02412:130000000000001300000000
#0241b:0000001300130000
#02416:00130000
#02415:000000000000000000000013000000000000000000130000
#02410:41
#02512:14141414
#0251b:0000001300000013
#02519:00001313
#02517:0000130000130000
#02617:1313
#02612:14141300
#0261b:00130000
#02918:0000001300000000
#02912:2613
#02916:00000013
#02914:0000000000130013
#0291a:00001414
#03015:0014000026001300
#03018:00000013
#03017:000000000000000000000000000000000000000000000000000000000000000000000000000000000000000000000000001400000000000000000000000000000000000000000000000000000000000000000000000000000000000000000000000000000000000000000000000000000000000000000000000000000000000000000000000000000000000000000000000000000000000000000000000000000000000000000000000000000000000000000000000000000000000000000000000000000000000000000000000000000000000000000000000000000000000000000000000000000000000000000000000000000000000000000000000000000000000000000000000000000000000000000000000000000000000000000000000000000000000000000000000000000000000000000000000000000000000000000000000000000000000000000000000000000000000000000000000000000000000000000000000000000000000000000000000000000000000000000000
#03012:2400000000000013
#0301b:0000000000000013
#0301a:24
#03010:41
#00418:000013000013000000000000130000000000130000000000
#00415:000000130000001300001300
#00412:130000000000000000530013000000000013000000000013
#0041b:0000000000130013
#00414:000000000000005300000000000000000000000000000000
#00413:005300
#0051b:1300005300000000
#00515:000013000013000000000013000000000000000000000000
#00518:00132300
#00512:00000023
#00519:000000000000005300000000000000000000000000000000
#0051a:005300
#00718:0000001300130000
#00712:130000000000000000000000000013000000000000130000
#0071b:000000000013000000000000130000000000130000000000
#00716:00130000
#00715:000000000000000000000013000000000013000000000000
#00717:13
#00818:0013000000001300
#00815:000000000013000000000000000000000013000000000000
#0081b:00131300
#00812:240000000000000000130013000000000000000000000000
#00816:000000000000000000000000000000000000000000000013
#0081a:24
#0091b:1313
#00914:001300001300000000000000
#00919:0013001300000000
#00912:000000000013000000000000000000130000000000000000
#00917:0000130000130000
#00916:000000000000000000000013000000000000000000000000
#01015:000000130000130000000013000000000013000000000000
#01012:130000000000000000000000000013000000000000130000
#01018:130000000013000000130000000000130000000000000000
#0101b:00001313
#0121b:530000130013000000000000000000000013000000000013
#01215:00130013
#01218:000000000000000000130013000000000000000013000000
#01212:1400000013000013
#01210:41
#01316:1313
#01314:0013001300000000
#01319:001300001300000000005353
#01317:000000000013000000000000000000000000000000000000
#01312:00130000
#0131b:000000000000000000000013000000000000130000000000
#0131a:000000000000000000000000000000000000005300000053
#01318:0000000000000053
#01118:000000130000130000000013000000000013000000130000
#0111b:130000000000001300000000
#01115:130000000013000000130000000000130000000000000000
#01112:00001314
#01119:000000000000000000000053
#0111a:000000000000000000000000000000000000000000000053
#0181a:14
#0181b:00130013
#01812:13141300
#01817:0013000014000000
#01815:0000001300000000
#01819:0000000000130000
#01814:0000000000000013
#01816:00000014
#01810:41
#01912:13140024
#01919:0013000000000000
#01917:00130000
#01914:0000001300000000
#0191a:1400000000000000000000000000000014000000000000000034343434343434
#01915:0014
#01916:0000000000000000000000000000000000000000000000002434343434343434
#02017:000000000013000000000000000000000013000000000000
#02016:1413
#02012:00130013
#0201b:000000000000000000000013000000000000000000000013
#02216:00000012
#0221a:00000014
#02212:25
#02217:53
#02317:13
#02315:0013000000000013
#02319:000000000013000000000000000000000000000000000000
#02316:00130000
#02318:000000000000000000130000000000000000000013000000
#02314:000000000000000000000013000000130000000000000000
#0231b:000000000000000000000000130000000013000000000013
#02312:23000013
#02819:000013000000000000000000000000130000000000000000
#02814:000000130000000000000013000000000013000000000000
#0281b:000000000013000000000000130000000000000000000000
#02812:130000000000001300000000
#02817:0000001300001300
#02816:00130000
#02815:0000000000000013
#02818:000000000000000000000000000000000000000000000013
#02716:13000013
#02718:0013000000000000
#02714:000000000013000000000000000000130000000000130000
#02717:000000000000130000000000000013000000000000000013
#02715:0000001300000000
#02719:000000000000000000000013000000000013000000000000
#0271b:130000000013
#02712:0013
#03118:0000001300000013
#03112:00261314
#0311a:0014
#03115:0000000000130000
#0311b:00000013
#0351a:14
#03512:13131400
#03517:00141300
#03519:0013000000130000
#03514:0000001300000013
#0351b:00000013
#03515:00000014
#03612:1300000000000000140000000000000000000000000000000034343434343434
#03619:0013000000000000
#03617:00130000
#03614:0000001300000000
#0361a:14001424
#03616:0000000000000000000000000000000014000000000000002434343434343434
#04114:000000000000130013000000000000130000000000000000
#0411b:000000000000000000000000000000000013000000130013
#04112:1313
#04119:000000130013000000000000000013000000000000000000
#04117:000000000000000000130013000000000000000000000000
#04116:00000013
#04110:0041
#04212:1300130000000013
#04218:001300000000000000000000
#04215:0013000000000000
#0421b:000000000013000000000000000000000000000000000000
#0421a:00001414
#04219:0000001300000000
#04216:000000000000000000000013000000000000130000000000
#0431a:14141414
#04316:0013
#04312:00000013
#0441b:13000013
#04416:13
#04417:0013
#04415:000000000000000000000000000000130013000000000000
#04412:000000000000000000000000130000000000000000130013
#04617:0000130000000013
#0461b:13
#04612:001300000000260000000000
#04619:0013000000000000
#04614:000000000013000000000000000000000000000000000000
#04615:0000001300000000
#04618:000000000000000000000013000000000000000000000000
#0471b:13
#04717:000000000000000000000000000000000000000000000000000000000000000000000000000000000000000000000000000000000000000000000000000000000000000000000000000000000000000000000000000000000000000000000000130000000000000000000000000000000000000000000000000000000000000000000000000000000000000000000000000000000000000000000000000000000000000000000000000000000000000000000000000000000000000000000000000000000000000000000000000000000000000000000000000000000000000000000000000000000000000000000000001400000000000000000000000000000000000000000000000000000000000000000000000000000000000000000000000000000000000000000000000000000000000000000000000000000000000000000000000000000000000000000000000000000000000000000000000000000000000000000000000000000000000000000000000000000000000000000000
#04719:0013001300000000
#04712:14142400
#04715:0000000000140000
#0471a:0024
#04818:00130000
#04815:1600130000000013
#0481b:0000001300000000
#04812:0000001300002c00
#04018:000000000000120000000000000000130013000000000000
#04012:00140013
#04016:0013
#0401b:000000000000000000000000230000000000000000130013
#0401f:0021
#04514:000000000000001300000000
#04519:0000000000130000
#04512:000000000000000000130013000000000013000000000000
#0451b:131300000000130000000000
#04517:00000013
#04516:000000000000000000000000000000000000000000130013
#04515:000000130013000000000000000000000000000000000000
#04518:000000131300000000000000
#0491b:1323
#04912:14132300
#0491a:00140000
#04918:0013000000000000
#04915:0000001300000000
#0501b:230000000000000000000000230000000000000000000013
#05012:230000000000000000000000000013000013000000130000
#05018:000000000000000000131300
#05015:000000000000000000000000230000000000001300000000
#05118:000013000000000013000000000000000000001300000000
#0511b:000000000013000000000013000013000013000000130000
#05115:000000130000000000130000000000000000130013000013
#05112:13132300
#05218:130000000000000000000000000013000013000000130000
#0521b:003333133333000000000000230000000000001300000000
#05215:000000130000000000000000000000000000130013000000
#05212:000000000000130000000000000000000000000000000013
#05216:0000001300000000
#05315:000000130000000000130000000013000013000000130000
#05312:000000000000130000000000230000000000001300000000
#0531b:130013000000000013000000000000000000000000000013
#05318:000000000013000000000013000000000000130013000000
#02116:130000005353000000000000
#0211b:000000130053
#02115:005300000000005300000053000000000000000000000000
#02114:005300530000530000000000
#02113:000000530053000000000000000000000000000000000000
#02112:005300000000
#02117:000000000000000000530000000000005300000000000000
#0211a:000000000000000000000000005300000000005300530000
#02119:000000000000005300530053
#02118:000000000000000000000000000000530053000000000053
#03315:13
#0331f:11
#03418:13
#03215:0000000000161600
#03212:2323
#0321b:2323
#03716:140000000013000000000000000000000013000000000000
#0371b:00130013
#03712:000000000000000000000013000000000000000000000013
#03717:0013
#03817:130000005353000000000000
#03812:000000130053
#03818:005300000000005300000053000000000000000000000000
#03819:005300530000530000000000
#0381a:000000530053000000000000000000000000000000000000
#0381b:005300000000
#03816:000000000000000000530000000000005300000000000000
#03813:000000000000000000000000005300000000005300530000
#03814:000000000000005300530053
#03815:000000000000000000000000000000530053000000000053
#05415:23
#0541b:00230000
#03919:25
#03916:53
#0005a:00140000
#00052:00000014
#00152:0056
#00156:00000026
#00355:00006313
#00352:0000000000630000
#0035b:00000063
#00357:0000000000000023
#0065b:63000063
#00657:00530000
#00252:16
#01752:6353
#01756:00000013
#0175b:00530013
#02252:15
#02256:00000062
#02352:13
#02357:53
#02356:00630000
#0235b:0063
#02457:00000053
#02456:00130000
#02657:5353
#02652:14145300
#0265b:00530013
#02656:00000013
#03052:5400140000000023
#03055:0024000016005300
#03058:00000053
#03057:000000000000000000000000000000000000000000000000000000000000000000000000000000000000000000000000002400000000000000000000000000000000000000000000000000000000000000000000000000000000000000000000000000000000000000000000000000000000000000000000000000000000000000000000000000000000000000000000000000000000000000000000000000000000000000000000000000000000000000000000000000000000000000000000000000000000000000000000000000000000000000000000000000000000000000000000000000000000000000000000000000000000000000000000000000000000000000000000000000000000000000000000000000000000000000000000000000000000000000000000000000000000000000000000000000000000000000000000000000000000000000000000000000000000000000000000000000000000000000000000000000000000000000000000000000000000000000000000
#0305a:64140000
#0305b:0000000000000023
#03152:00160014
#03155:13
#03158:13
#0315a:0014
#00752:53
#00756:00630000
#0075b:00000063
#0095b:00005313
#00957:0000000000630000
#00952:0000000000630000
#00956:00000013
#01058:5300000000000013
#0105b:00000063
#01055:00630000
#01052:0000000000000013
#01155:63
#01158:00530000
#01152:00000014
#01356:0053
#01452:14140000
#0145a:00001414
#01555:14
#01558:00140000
#0155a:00001454
#01552:0014
#01556:00000054
#01656:14
#01652:14
#0185a:14
#01852:00140000
#01857:0014
#01856:00000014
#0195a:1414
#01952:00140064
#01955:0014
#01956:00000064
#02056:5463
#02052:00530053
#02552:14141414
#02857:00000053
#02856:00530000
#02756:63
#02757:00530000
#02952:00160000
#0295a:00001414
#03252:5313
#0325b:5313
#03255:00130016
#03258:00130000
#03452:00000013
#0345b:00000013
#0355a:14
#03557:00140000
#03552:0014
#03555:00000014
#0365a:14001454
#03652:00140000
#03656:00001454
#04252:00530000
#0425a:00001414
#0435a:14141414
#04356:0063
#04352:00000063
#0445b:63000063
#04456:63
#04457:00135300
#04452:00130000
#04858:00631300
#04855:16631300
#04852:0000002300001c00
#0485b:0000002300000000
#04058:00520000
#04056:0063
#04052:00000053
#0405b:0013
#04152:53
#04156:00000013
#04657:00530000
#04652:00000016
#04557:00000063
#04752:14145414
#04755:0000000000240000
#04757:000000000000000000000000000000000000000000000000000000000000000000000000000000000000000000000000000000000000000000000000000000000000000000000000000000000000000000000000000000000000000000000000000000000000000000000000000000000000000000000000000000000000000000000000000000000000000000000000000000000000000000000000000000000000000000000000000000000000000000000000000000000000000000000000000000000000000000000000000000000000000000000000000000000000000000000000000000000000000000000000002400000000000000000000000000000000000000000000000000000000000000000000000000000000000000000000000000000000000000000000000000000000000000000000000000000000000000000000000000000000000000000000000000000000000000000000000000000000000000000000000000000000000000000000000000000000000000000000
#0475a:00006414
#04952:1463
#0495a:00140000
#0495b:0063
#04958:00000013
#04955:00000013
#05258:53130000
#0525b:0053000000000000
#05252:00530000
#05256:0000002300000000
#05058:00460000
#05052:53360000
#0505b:53
#0085b:0053
#00858:00000053
#01252:0053
#01255:000000000000001300000000
#00558:0063
#00552:00000013
#0055b:00000013
#05455:53
#0545b:00130000
#05452:00130000
#03756:64
#0375b:00630063
#03757:0053
#03959:15
#001320:0016
#001360:00000056
#002320:26
#003350:00001323
#003320:000000000000000000000000003333333333000000000000
#0033b1:00000013
#003371:0000000000000053
#0043b1:23
#005381:0013
#0053b1:000000000000000000000000000000333333230000000000
#0063b1:13
#006371:000000000023000000000000000000000000000000000000
#006371:00130000
#0063b1:0000002300000000
#0063b1:00000013
#006381:0000000000000023
#007321:13
#007361:000000000023000000000000000000000000000000000000
#007361:00130000
#007321:0000002300000000
#0073b1:00000013
#007381:0000000000000023
#0083b1:0013
#008381:000000000000002300000000
#008381:00000013
#0083b1:000000000023
#0093b1:00001323
#009371:0000000000330000
#009320:0000000000130000
#009360:00000023
#010380:13
#0103b0:0023000000000000
#010350:00130000
#010320:0000002300000000
#0103b0:00000013
#010380:0000000000000023
#011350:13
#011320:0023000000000000
#011380:00130000
#0113b0:0000002300000000
#012320:0013
#012350:000000000000002300000000
#013360:0013
#013320:00000026
#0153a0:00000014
#015360:0000000000000000000000000000000000000000000000000034343434343434
#016360:24
#015361:00000014
#015321:0000000000000000000000000000000000000000000000000034343434343434
#016321:24
#017321:13
#017361:00230000
#0173b0:00130000
#017370:0023
#017321:0013
#017361:00000023
#019321:00000014
#019361:0000000000000000000000000000000000000000000000000034343434343434
#020361:34
#020321:000000000023000000000000000000000000000000000000
#019360:00000014
#0193a0:0000000000000000000000000000000000000000000000000034343434343434
#0203a0:24
#020321:00130000
#020361:000000000000000000000023000000000000000000000000
#020361:0013
#020321:000000000000000000000000000000000023000000000000
#020321:00000013
#020361:000000000000000000000000000000000000000000000023
#022361:00000012
#023321:23
#023370:13
#0233b0:0023000000000000
#023360:00130000
#023320:0000002300000000
#0233b0:0013
#023370:0000000000230000
#024370:00000013
#0243b0:0000000000000023
#026370:1333
#0263b0:00330023
#026321:0013
#026361:00000023
#027361:13
#027321:0023000000000000
#027371:00130000
#0273b1:0000002300000000
#028361:00130000
#028321:0000002300000000
#028371:00000013
#0283b1:0000000000000023
#029321:1656565656565656260000000000000000000000000000000000000000000000
#029331:00540054005400540054005400540054000000000000000000000000000000000000000000000000000000000000000000000000000000000000000000000000
#030321:14240000
#030351:0054000000000000
#0303a0:14240000
#030370:000000000000000000000000000000000000000000000000000000000000000000000000000000000000000000000000005400000000000000000000000000000000000000000000000000000000000000000000000000000000000000000000000000000000000000000000000000000000000000000000000000000000000000000000000000000000000000000000000000000000000000000000000000000000000000000000000000000000000000000000000000000000000000000000000000000000000000000000000000000000000000000000000000000000000000000000000000000000000000000000000000000000000000000000000000000000000000000000000000000000000000000000000000000000000000000000000000000000000000000000000000000000000000000000000000000000000000000000000000000000000000000000000000000000000000000000000000000000000000000000000000000000000000000000000000000000000000000000
#030350:00000013
#030320:0000000000000053
#031350:23
#030381:00000013
#0303b1:0000000000000053
#031381:23
#032321:13
#032351:00230000
#0323b0:13
#032380:00230000
#033380:1300005333000023
#0333b0:0053330000533300
#033351:0013000053330000
#033321:0000533300005323
#034351:1300005333000000
#034321:0053330000532300
#034380:0013000053330000
#0343b0:0000533300002300
#0363a0:00000014
#036360:0000000000000000000000000000000000000000000000000034343434343434
#037360:34
#0373b0:000000000023000000000000000000000000000000000000
#036361:00000014
#036321:0000000000000000000000000000000000000000000000000034343434343434
#037321:24
#0373b0:00130000
#037370:000000000000000000000023000000000000000000000000
#037370:0013
#0373b0:000000000000000000000000000000000023000000000000
#0373b0:00000013
#037370:000000000000000000000000000000000000000000000023
#040380:00120000
#0403b0:0023
#040361:0013
#040321:0000000000230000
#040321:00000013
#040361:0000000000000023
#041321:13
#041361:0023000000000000
#042321:00130000
#042361:0000002300000000
#043361:1323000000000000
#043321:0000132300000000
#043361:0013
#043321:00000033
#044361:33
#044321:00230000
#0443b0:13
#044370:00230000
#044370:0013
#0443b0:0000000000230000
#0443b0:00000013
#044370:0000000000000023
#045370:00000013
#0453b0:0000000000000023
#046370:00130000
#0463b0:0000002300000000
#046320:0000000000000000000000000000000016565656565656562600000000000000
#046330:00000000000000000000000000000000000000000000000000000000000000000054005400540054005400540054005400000000000000000000000000000000
#047320:00001424
#047350:0000000000540000
#0473a1:00001424
#047371:000000000000000000000000000000000000000000000000000000000000000000000000000000000000000000000000000000000000000000000000000000000000000000000000000000000000000000000000000000000000000000000000000000000000000000000000000000000000000000000000000000000000000000000000000000000000000000000000000000000000000000000000000000000000000000000000000000000000000000000000000000000000000000000000000000000000000000000000000000000000000000000000000000000000000000000000000000000000000000000000005400000000000000000000000000000000000000000000000000000000000000000000000000000000000000000000000000000000000000000000000000000000000000000000000000000000000000000000000000000000000000000000000000000000000000000000000000000000000000000000000000000000000000000000000000000000000000000000
#048381:00132300
#0483b1:0000005300000000
#048350:00132300
#048320:0000005300000000
#0493b0:0013
#049380:00000023
#049321:0013
#049351:00000023
#050321:13260000
#0503b0:13
#050380:00260000
#052380:13230000
#0523b0:003333333333000000000000000000000000000000000000
#052321:00132300
#052361:0000005300000000
#054351:13
#054321:000000333333230000000000000000000000000000000000
#002950:00130000
#002920:0000002300000000
#003980:00130000
#0039b0:0000002300000000
#004950:00130000
#004920:0000002300000000
#005980:00130000
#0059b0:0000002300000000
#011980:0000000000000013
#0129b0:23
#0139b0:00000013
#013980:0000000000000053
#0149b0:23
#021960:13
#021920:005300000000
#021970:0000005300000000
#021940:0023
#0219b1:000000130053
#021971:000053
#022971:23
#038971:13
#0389b1:005300000000
#038961:0000005300000000
#038991:0023
#038920:000000130053
#038960:000053
#039960:23
