This file was generated by Ched 2.7.0.0.
#TITLE ""
#ARTIST ""
#DESIGNER ""
#DIFFICULTY 0
#PLAYLEVEL
#SONGID ""
#WAVE ""
#WAVEOFFSET 0
#JACKET ""
#REQUEST "ticks_per_beat 480"
#00002: 4
#BPM01: 109
#00008: 01
#TIL00: ""
#VOLUME: ""
#HISPEED 00
#MEASUREHS 00
#00012:12000024
#0001a:00241200
#00014:000000000000000000000012120000000000000000000000
#00019:000000000000000000000000000000000000000000000012
#0001c:12
#00016:00240024
#00114:000000000013130000000000000000000000000000000000
#00112:0016
#00115:12
#00119:120000000000130000000014140000000000000000000000
#00118:00000016
#00212:260000000000130000000013000000000013000000000013
#0021b:130000000000000000130000130013000000000013000000
#00215:000000000000000013000000000000160000160000160000
#00217:000015000015000000000000000000000000000000000000
#00218:000000000000001300000000000000000000000000000000
#00612:000000000012120000000000000012000000000000000000
#00618:0000000000120000
#0061c:12000012
#00616:120000000000000000000000000000000012000000120000
#0061a:000000000000000000120012000000000000000000000000
#00617:0012
#00610:41
#0141a:14
#0141b:00130013
#01412:0016140013160013
#01416:00001414
#01418:0013001600130000
#01415:0000001300000016
#01514:00001300000015000000000000540054
#0151a:00001424
#01512:16001424
#01518:0000000000000000160000000000000000000000000000000000545300535400
#01517:0015000000000000
#01519:0000000000000000000000001300000000000000000000000054000000000054
#01515:0000000000000000000000000000000000000000000000000000005300530000
#01513:0000000000000000000000000000000000000000000000000054000000000054
#01516:0000000000000054
#02414:000013180000000000000000000000000000000000000000
#0241b:000000000013000000130000000000000000130000000000
#02415:000000000000000000000000160000160013000000000000
#02418:000000000000000000000000000013000000000000000013
#02412:180000000000000000130013000000000000000000130000
#02416:00180000
#02410:41
#02512:1400001300001300
#02516:0000141413001413
#02519:0000000000130000
#0251b:0000000000000013
#02518:0013000000000000
#02514:0013000000130000
#0251a:0014
#00312:0000001313001300
#0031b:000000000000130000000000000000000013000000130013
#00314:000015000015000000000000000013000000000000000000
#00315:160000000000001300000000000000000000000000000000
#00317:000000000000000000000000001300000000000000000000
#00319:0000000000130000
#00316:000000000000000013000016
#00318:001300
#00818:000000120000000000120000120000000012000012000000
#00816:000000000012000000000000000012000000000000000000
#0081c:00120000
#00812:240000000000000000000012000000000000120000000000
#00814:000000000000000000000000000000000000000000000012
#0081a:24
#0091c:1212
#00917:0000000000120000
#00912:000012000000000000000000000000120000000000000000
#0091a:0012001200000000
#00914:000000000012000000000012000000000000000000000000
#00918:00120000
#00916:000000000000000012000000000000000000545454540000
#01012:130000000000000000000013000000000013000000140000
#01015:000000160000130000160000160013000000160000000000
#01018:130000000013000000000000000000160000000000000000
#0121b:000000130013000000130000000023000013000000000013
#01215:0000160016001616
#01212:160000130000000000130013000023000000000013000000
#01210:41
#01316:16
#01313:0016000000000000
#01318:000013000000000000000013000000000000000000000000
#0131a:000000000013000000000000000000000000000000000000
#01315:000000000000160000000000000000000000001700000000
#01317:001300
#01312:0000001613000013
#0131b:00000013
#01319:000000000013
#01314:000000000000000000000000000000000000000000001713
#0221a:64000014
#02212:00000014
#02217:0000000000000014
#02317:130000000000000000000000130000000000000000000013
#02316:0014131400141800
#02319:000000000013000000000000000000000000000000000000
#02314:000000000000000000000013000000000000000013180000
#0231b:000000000000000000000000000000000013000000000000
#02312:24
#02715:160000160013000000000000000013190000000000000000
#02712:000013000000000000130000000000000000000000000013
#02716:000000000000000000000013180000000000000000000000
#02718:0000161300000000
#02714:0000000000000000000000000000000000131a0000000000
#02713:0000000000000000000000000000000000000000131b0000
#03512:1c00131600001300
#0351a:00140000
#03516:00001414
#03515:0013000000130016
#03518:0016001300160000
#0351b:0000000013000013
#00416:16
#0041b:000000000000130000000013000000000013000000000013
#00412:000000000000000000130000130013000000000013000000
#00415:000000000000001300000000000000160000160000160000
#00414:000015000015000000000000000000000000000000000000
#00418:001300
#0051b:0000001300130000
#00515:161313
#00518:000000000000001300000000260000000013000000000000
#00517:000015000015000000000000000000000000000000000000
#00512:000000000000130000000013000000000000230000000000
#00717:000000000000000000000012000012000012000000000000
#0071a:0000000000120000
#00712:12000012
#0071c:000000000012120000000000000000000000000000000000
#00718:1200000000000012
#00714:0000001212000000
#0111b:130000000000000000000013000000000013000000000000
#01115:130000160013000000160000160000000000160000000000
#0111a:0000000000000012
#01116:000000000000000000000012
#01118:000000000000130000000000000013000000000000000012
#01112:0000000000160000
#01612:6400130000001316
#0161b:0013
#01614:0000000000120000
#01616:00141414
#01615:0000001600000000
#01618:0000000000160000
#0161a:6400000000000012
#01719:1515
#01712:0000150000151500
#02012:640000000014000000000000180000000014000000000000
#02016:00180018
#0201a:640000000000000000000014000000000000000000000000
#0201b:000000000000000000000000000000000000000000000013
#02117:000000001300000000000000000000000000000000000000000000000000000000000000000000000000000000000000000000000000000000000000000000000000000000000000000000000000000000000000000000670000000000000000
#02114:000000001300000000000000000000000000000014000000000000001600000000000000000000680000000000000000
#02119:0000000013000000000000000000000000000000000000000000000000000065
#02116:000000001300000000140000001600000016000000680000
#0211b:000000000013000000000000000000000000000000000000
#02118:000000000000000000000000000014000000000000000000000000000000160000000000000000000000000000660000
#02112:230000241400260016280000
#0211a:000000000000000000000014000000000000000000000000
#02113:0000000000000000000000000000000000000000000000000068000000000000
#02115:0000000000000000000000000000000000000000000000000000006800000000
#02615:000000140000000000000000000000130013000000130013
#02617:0000001400000000
#02612:140000000000140000000000001300000000000000000000
#02616:14
#02618:000000140000000013160013
#0261b:000000000000131300000000
#02817:000000000000000000000013000000000000000000000000
#02812:0000160018191a1b
#02818:000000000013000000000000000013000000000000000000
#02819:000000000000000000000000000000000013000000000000
#0281a:000000000013
#0281b:000013000000000000130000000000000000000000000013
#02815:1616001300000000
#02918:00001613
#02912:2c00001300001600
#02917:0000001300000000
#02919:0000000000130000
#0291b:0000000000000013
#02914:0000000000130000
#02916:0000000000000013
#02915:0013
#03012:2c1c
#0301a:00000014
#03010:41
#03019:0000000000000000000000000000000000000000000000000054000000000000
#03018:00000000000000000000000000540000
#03017:0000000000000000000000000000000000000000000000000000005400000000
#03016:0000000000000054
#03015:0000000000000000000000000000000000000000000000000000000000540000
#03014:00000000000000000000000000000054
#03013:0000000000000000000000000000000000000000000000000000000000000054
#03115:000000000000000000000000000000000000000000000000000000000000000000000000000000000000000000000019000000000000000000000000000000000000000000000000000000000000000000000000000000000000000000000000
#03112:5400000000000000000000000000000000000000000000002c0000000000000000000013000000000000000000000000000000000000000000000000000000000000000000000019000000000000000000000000000000000000000000000000
#03117:000000000000000000000000000000000000000000000000000000000000000000000013000000000000000000000000000000000000000000000000000000000000000000000000000000000000000000000000000000000000000000000000
#03119:000000000000000000000000000000000000000000000000000000000000000000000000000000000000000000000000000000000000000000000013000000000000000000000000000000000000000000000000000000000000000000000000
#0311b:000000000000000000000000000000000000000000000000000000000000000000000000000000000000000000000000000000000000000000000000000000000000000000000000000000000000000000000013000000000000000000000000
#03114:000000000000000000000000000000000000000000000000000000000000000000000000000000000000000000000000000000000000000000000013000000000000000000000000000000000000000000000000000000000000000000000000
#03116:000000000000000000000000000000000000000000000000000000000000000000000000000000000000000000000000000000000000000000000000000000000000000000000000000000000000000000000013000000000000000000000000
#03315:16
#03312:0013001300130000
#0331b:0013000000130013
#03316:0000130000000013
#03319:00131300
#03317:0000001300001300
#03314:00001313
#0331f:11
#03412:1300000000000000000000000000182a00002c001c2c001c
#0341b:13
#03415:000013150000000000000000000000000000000000000000
#03418:000000000014000000000016000000000000000000000000
#03416:00162800
#03413:000000000000000015170000000000000000000000000000
#03414:00000000000000000000000000000000001a000000000000
#04515:000000190000000000000000000013160000000000000013
#04518:000000000000000000000000000000000013000000000000
#04512:1800001a13001c0000130000
#04514:001300000000000000000000
#0451a:000000000013000000000000000000000000000000000000
#04513:0000001b00000000
#0451b:000000000000000000000013000000000000000000130000
#04418:000000130013000000130013000000000013000000000013
#0441b:001300000000000000000000000013000000000000130000
#04415:000000001300000000001300160000160000000000000000
#04412:130013000000160000000000000000000000160000130000
#04612:0000001900000000001b00132c0000000000000000000000
#04617:0000000000000013
#0461b:000000000000000013000000000000000000000000130000
#04616:18
#04619:001300000000000000000000
#04613:000000000013000000000000000000000000000000000000
#04614:001a0000
#04712:1613001325000000
#04718:13160000
#0471b:0013000000000000
#04716:0000001300000000
#04715:00130000
#04719:0025
#04812:1c14002c
#04817:0000000000000000000000000054000000000000000000000000000013000000
#0481b:0000000000000013
#04813:0000000000000000005400000000000000000000000000000000000000000000
#04814:00000000005400000000000000000000
#04815:0000000000000000000000540000000000000000000000000000000000000000
#04816:0000005400000000
#04818:00000000000000540000000000000000
#04819:0000000000000000000000000000005400000000000000000000000000000000
#0481a:0054
#04912:1913001300000000
#04915:00190000
#0491b:0013000000000000
#04916:0000001300000000
#04914:000000000000000000000000000000000000000000000000000000000000000000000000000000000000000000000000000000000000000000000000000000000000000000000000000000000000000000000000000000000000000000000000000000000000000000000000000000000000000000000000000000000000000000000000000000000000000000000000000000000000000000000000000000000000000000000000000000000000000000000000000000000000000000000000000000000000000000000000000000000000000000000000000000000000000000000000000000000000000000000000000000000000000000000000000000000000000000000000000000000000000000000000000000000000000000000000000000000000000000000000000000000000000000000000000000000000000000000000000000000000000000000000000000000000000000000000000000000000000000000000000000000000000000000000000000000000000000000000000000000000000000000000000000000000000000000000000000000000000000000000000000000000000000000000000000000000000000000000000000000000000000000000000000000000000000000000000000000000000000000000000000000000000000000000000000000000000000000000000000000000000000000000000000000000000000000000000000000000000000000000000000000000000000000000000000000000000000000000000000000000000000000000000000000000000000000000000000000000000000000000000000000000000000000000000000000000000000000000000000000000000000000000000000000000000000000000000000000000000000000000000000000000000000000000000000000000000000000000000000000000000000000000000000000000000000000000000000000000000000000000000000000000000000000000000000000000000000000000000000000000000000000000000000000000000000000000000000000000000000000000000000000000000000000000000000000000000000000000000000000000000000000000000000000000000000000000000000000000000000000000000000000000000000000000000000000000000000000000000000000000000000000000000000000000000000000000000000000000000000000000000000000000000000000000000000000000000000000000000000000000000000000000000000000000000000000000000000000000000000000000288800000000000000000000000000000000000000000000000000000000000000000000000000000000000000000000000000000000000000000000000000000000000000000000000000000000000000000000000000000000000000000000000000000000000000000000000000000000000000000000000000000000000000000000000000000000000000000000000000000000000000000000000000000000000000000000000000000000000000000000000000000000000000000000000000000000000000000000000000000000000000000000000000000000000000000000000000000000000000000000000000000000000000000000000000000000000000000000000000000000000000000000000000000000000000000000000000000000000000000000000000000000000000000000000000000000000000000000000000000000000000000000000000000000000000000000000000000000000000000000000000000000000000000000000000000000000000000000000000000000000000000000000000000000000000000000000000000000000000000000000000000000000000000000000000000000000000000000000000000000000000000000000000000000000000000000000000000000000000000000000000000000000000000000000000000000000000000000000000000000000000000000000000000000000000000000000000000000000000000000000000000000000000000000000000000000000000000000000000000000000000000000000000000000000000000000000000000000000000000000000000000000000000000000000000000000000000000000000000000000000000000000000000000000000000000000000000000000000000000000000000000000000000000000000000000000000000000000000000000000000000000000000000000000000000000000000000000000000000000000000000000000000000000000000000000000000000000000000000000000000000000000000000000000000000000000000000000000000000000000000000000000000000000000000000000000000000000000000000000000000000000000000000000000000000000000000000000000000000000000000000000000000000000000000000000000000000000000000000000000000000000000000000000000000000000000000000000000000000000000000000000000000000000000000000000000000000000000000000000000000000000000000000000000000000000000000000000000000000000000
#05115:130000000013
#05118:000000000000000000000013000000000000001300000000
#05114:000000000000000000000000000015000015000000000000
#0511b:000000000000001300130000
#05112:000014000000180014000000260000000000000000130000
#0511a:000000000014000000000000000000000000000000000014
#05116:0018001800000000
#05017:000000000000000000000000000015000015000000000000
#05018:260000000000000000001300260000000000000013000013
#05012:260000000000001300130000
#05015:000000000000000000130013000000000000001300000000
#0501b:0000000000000013
#0521b:000000000000000000130013000000000000130000000000
#05216:001400001400000000001800280000000000000000000000
#05212:140014000000180000000000000015000015000000130000
#0521a:000000140014000000000000000000000000000000000000
#05218:000000000000000000000000000013000000001300000013
#05215:000000000013
#05312:001400181600280000130000
#05319:000000000015000000000000000015000015000000000000
#05315:130000000000000000000000000013000000001300000013
#05316:0018001800000000
#05318:000000000000000000000013000000000000000013000000
#0531b:0000000000000013
#03218:000000000000000000000000260000000000000000130013
#03215:000000000000000000000013
#03212:0026
#03214:28
#0371b:000000000013000000000000000000000013000000000000
#03716:00180018
#03712:640000000000000000000013180000000000000000000013
#0371a:64
#04119:000000001300001300000000
#04114:0000001800180000
#04112:000000000013180000000000000000000013180000130000
#04116:130000140000000000000013180000000000000000000000
#0411b:000000000000000000000000000000000000000000130013
#04110:0041
#04215:160013160000000000000013000000130000000000000000
#04218:000000000013000000000000000000000000000000000000
#0421b:0000001300000013
#04212:00130000
#0421a:0014
#04216:0000000000001414
#04219:0000000000130000
#04312:1400001300000000
#04317:1300001300140000
#04315:0000000000000014
#0431a:00001414
#04316:00141400
#04314:0013000000001400
#0431b:00130000
#04319:0013000000000000
#01812:1400131600001300
#0181a:00140000
#01816:00001414
#01815:0013000000130016
#01818:0016001300160000
#0181b:1300000013000013
#01810:41
#01919:0000000013000000000000000000000000000000000000000054000000000054
#01912:00161424
#01918:1600000000000000000000000000000000000000000000000000545300535400
#0191a:00001424
#01914:00001500000013000000000000540054
#01917:0000001500000000
#01915:0000000000000000000000000000000000000000000000000000005300530000
#01913:0000000000000000000000000000000000000000000000000054000000000054
#01916:0000000000000054
#03816:001300000000000000140000000016000000280000000000
#03819:001300000000000000000000
#03814:000000000000130000000000000014000000000000000000000016000000000000001600000000680000000000000000
#03817:001300000000
#03812:000000000000000000000000000000000000000013000000000000000000000000000000000000000000000014000000000000000000000000000000160000000000000000000000000000000000000000000000680000670000660000650000
#0381a:000000241400000000000000
#03818:000000000014260016000000
#0381b:23
#03815:0000000000000000000000000000000000000000000000000068000000000000
#03813:0000000000000000000000000000000000000000000000000000006800000000
#03619:0000000013000000000000000000000000000000000000000054000000000054
#03612:00161424
#03618:1600000000000000000000000000000000000000000000000000545300535400
#0361a:00001424
#03614:00001500000013000000000000540054
#03617:0000001500000000
#03615:0000000000000000000000000000000000000000000000000000005300530000
#03613:0000000000000000000000000000000000000000000000000054000000000054
#03616:0000000000000054
#04012:00140000
#04016:0000000013140014
#04014:000000000000000000000000000000000013000000000000
#04017:00000013
#04019:000000000000000000000000000000000000000000000013
#0401a:00142400
#04015:0000001400000000
#0401f:0021
#05418:26640000260000000000000000000000
#05419:0064000000000000000000000000000000000000000000000000000000000000
#05417:0000006400000000000000000000000000000000000000000000000000000000
#05416:0064000000000000
#05415:0000000000640000000000000000000000000000000000000000000000000000
#05414:00000064000000000000000000000000
#05413:0000000000000064000000000000000000000000000000000000000000000000
#05412:00640000
#03912:64
#0005a:00140000
#00052:00000014
#00056:00140014
#00152:0056
#00158:00000026
#0065c:62000062
#00652:00520000
#03152:1400000000000000000000000000000000000000000000001c0000000000000000000000000000000000000000000000000000000000000000000000000000000000000000000039000000000000000000000000000000000000000000000000
#03155:000000000000000000000000000000000000000000000000000000000000000000000000000000000000000000000049000000000000000000000000000000000000000000000000000000000000000000000000000000000000000000000000
#00352:00000053
#0095c:0052
#00957:0000000000620000
#00952:0000000000620000
#00956:0000000000000014
#0095a:00000014
#01058:5300000000000016
#01055:00630066
#01052:0000000000000014
#01352:0053
#0145a:14
#01452:00141300
#01456:00001414
#0145b:00130013
#01552:1614
#01558:00160000
#0155a:0014
#02357:5353
#02356:0034634400340000
#02352:34
#02552:14
#02556:00140014
#0255a:0014
#03252:001c1600
#03258:0016
#03254:00000018
#00552:00000013
#00558:0016
#00752:52000052
#0075c:00620000
#01155:63000036
#01158:00530000
#01656:00141414
#0165a:44
#01652:34
#01754:0015000000000000
#01759:65006545
#01752:0000550000253500
#01757:0000001500000000
#02056:00480048
#02052:3438
#0205a:44
#02456:00380000
#0245b:00000063
#02655:0024000000000000
#02657:0000002400000000
#02652:54540000
#02656:44
#02658:00440016
#02756:0048
#02755:0000000000490000
#02754:0000004a
#02753:000000000000004b
#02852:0000000038393a3b
#02952:001c0036
#02958:0046
#03052:001c
#03054:00180000
#03352:0013001300130000
#0335b:0013000000130013
#03357:0000001300000000
#03356:0000000000000013
#03552:1c130013
#0355a:00140000
#03556:00001414
#0355b:0013
#04552:383a0053
#04555:0049000000000000
#04553:0000004b00000000
#04752:3655
#04758:00460013
#04755:00000013
#04759:0065
#04852:1c00001c
#0485a:0014
#04952:39000015
#04955:00490000
#04959:00000015
#04954:000000000000000000000000000000000000000000000000000000000000000000000000000000000000000000000000000000000000000000000000000000000000000000000000000000000000000000000000000000000000000000000000000000000000000000000000000000000000000000000000000000000000000000000000000000000000000000000000000000000000000000000000000000000000000000000000000000000000000000000000000000000000000000000000000000000000000000000000000000000000000000000000000000000000000000000000000000000000000000000000000000000000000000000000000000000000000000000000000000000000000000000000000000000000000000000000000000000000000000000000000000000000000000000000000000000000000000000000000000000000000000000000000000000000000000000000000000000000000000000000000000000000000000000000000000000000000000000000000000000000000000000000000000000000000000000000000000000000000000000000000000000000000000000000000000000000000000000000000000000000000000000000000000000000000000000000000000000000000000000000000000000000000000000000000000000000000000000000000000000000000000000000000000000000000000000000000000000000000000000000000000000000000000000000000000000000000000000000000000000000000000000000000000000000000000000000000000000000000000000000000000000000000000000000000000000000000000000000000000000000000000000000000000000000000000000000000000000000000000000000000000000000000000000000000000000000000000000000000000000000000000000000000000000000000000000000000000000000000000000000000000000000000000000000000000000000000000000000000000000000000000000000000000000000000000000000000000000000000000000000000000000000000000000000000000000000000000000000000000000000000000000000000000000000000000000000000000000000000000000000000000000000000000000000000000000000000000000000000000000000000000000000000000000000000000000000000000000000000000000000000000000000000000000000000000000000000000000000000000000000000000000000000000000000000000000000000000000000000000000000585800000000000000000000000000000000000000000000000000000000000000000000000000000000000000000000000000000000000000000000000000000000000000000000000000000000000000000000000000000000000000000000000000000000000000000000000000000000000000000000000000000000000000000000000000000000000000000000000000000000000000000000000000000000000000000000000000000000000000000000000000000000000000000000000000000000000000000000000000000000000000000000000000000000000000000000000000000000000000000000000000000000000000000000000000000000000000000000000000000000000000000000000000000000000000000000000000000000000000000000000000000000000000000000000000000000000000000000000000000000000000000000000000000000000000000000000000000000000000000000000000000000000000000000000000000000000000000000000000000000000000000000000000000000000000000000000000000000000000000000000000000000000000000000000000000000000000000000000000000000000000000000000000000000000000000000000000000000000000000000000000000000000000000000000000000000000000000000000000000000000000000000000000000000000000000000000000000000000000000000000000000000000000000000000000000000000000000000000000000000000000000000000000000000000000000000000000000000000000000000000000000000000000000000000000000000000000000000000000000000000000000000000000000000000000000000000000000000000000000000000000000000000000000000000000000000000000000000000000000000000000000000000000000000000000000000000000000000000000000000000000000000000000000000000000000000000000000000000000000000000000000000000000000000000000000000000000000000000000000000000000000000000000000000000000000000000000000000000000000000000000000000000000000000000000000000000000000000000000000000000000000000000000000000000000000000000000000000000000000000000000000000000000000000000000000000000000000000000000000000000000000000000000000000000000000000000000000000000000000000000000000000000000000000000000000000000000000000000000000000
#04652:0039003b00001c00
#04656:48
#04654:004a0000
#00858:0052
#00852:00000052
#03756:00380038
#03752:3448
#0375a:44
#04152:00000048
#04156:6344000000000000
#04357:0000000000240000
#04355:0000000000000024
#0435a:00006464
#04356:00143400
#04354:00000034
#04352:14
#04252:00530000
#0425a:0014
#04256:00000014
#04452:00160000
#01852:14130013
#0185a:00140000
#01856:00001414
#0185b:1313
#01952:00161400
#01958:16
#0195a:0014
#05058:16
#05052:16
#05054:00180000
#00252:36
#05252:00380000
#03652:00161400
#03658:16
#0365a:0014
#02252:00000054
#02257:0000000000000024
#04056:0000000063440034
#04057:00000053
#0405a:00644400
#04055:0000002400000000
#001320:0016
#001380:00000056
#002320:26
#003320:00000013
#003360:0000000000000024
#0063c0:12
#006370:000000000022000000000000000000000000000000000000
#006320:00120000
#006370:0000002200000000
#0063c0:00000012
#006380:0000000000000022
#007320:12
#007370:000000000022000000000000000000000000000000000000
#0073c0:00120000
#007370:0000002200000000
#007320:00000012
#007360:0000000000000022
#008380:0012
#0083a0:000000000000002200000000
#008320:00000012
#008340:000000000022
#0093c0:0012
#009370:0000000000320000
#0093a0:00000024
#009321:0000000000120000
#009361:00000024
#010381:13
#0103b1:0023000000000000
#010351:00130000
#010321:0000002300000000
#010351:00000016
#010381:0000000000000026
#011351:13
#011321:0023000000000000
#011381:00130000
#0113b1:0000002300000000
#013321:0013
#013351:00000026
#017391:15
#017341:0025000000000000
#017321:00150000
#017371:0000002500000000
#017391:00001525
#017321:0000000000550000
#022321:00000014
#022371:0000000000000054
#023321:24
#023370:13
#0233a0:0024000000000000
#023360:00130000
#023320:0000002400000000
#023370:0013
#0233a0:0000000000240000
#0243b0:00000013
#024370:000000000000000000000000000000000000005300230000
#026320:14342400
#026350:0054000000000000
#026370:0000005400000000
#029320:1c3c3c3c3c3c3c3c2c0000000000000000000000000000000000000000000000
#029330:005a005a005a005a005a005a005a005a000000000000000000000000000000000000000000000000000000000000000000000000000000000000000000000000
#030320:1c
#030340:00280000
#032340:18
#032320:002c0000
#032320:00000000001c0000
#032340:00000028
#0403a0:00142400
#040350:0000005400000000
#040361:0013
#040321:0000000000240000
#040371:00000013
#0403a1:0000000000000024
#041361:13
#041321:0024000000000000
#042321:00130000
#042361:000000000000005300230000000000000000000000000000
#0433a1:00001434
#043371:0000000000540000
#043351:0000000000000054
#0443a1:24
#045321:00000013
#045361:0000000000000023
#046321:000000000000000000000000000000001c3c3c3c3c3c3c3c2c00000000000000
#046331:0000000000000000000000000000000000000000000000000000000000000000005a005a005a005a005a005a005a005a00000000000000000000000000000000
#047321:0015
#047351:00000023
#047390:0015
#047380:00000023
#049340:0018
#049320:00000025
#049341:000000000000000000000000000000000000000000000000000000000000000000000000000000000000000000000000000000000000000000000000000000000000000000000000000000000000000000000000000000000000000000000000000000000000000000000000000000000000000000000000000000000000000000000000000000000000000000000000000000000000000000000000000000000000000000000000000000000000000000000000000000000000000000000000000000000000000000000000000000000000000000000000000000000000000000000000000000000000000000000000000000000000000000000000000000000000000000000000000000000000000000000000000000000000000000000000000000000000000000000000000000000000000000000000000000000000000000000000000000000000000000000000000000000000000000000000000000000000000000000000000000000000000000000000000000000000000000000000000000000000000000000000000000000000000000000000000000000000000000000000000000000000000000000000000000000000000000000000000000000000000000000000000000000000000000000000000000000000000000000000000000000000000000000000000000000000000000000000000000000000000000000000000000000000000000000000000000000000000000000000000000000000000000000000000000000000000000000000000000000000000000000000000000000000000000000000000000000000000000000000000000000000000000000000000000000000000000000000000000000000000000000000000000000000000000000000000000000000000000000000000000000000000000000000000000000000000000000000000000000000000000000000000000000000000000000000000000000000000000000000000000000000000000000000000000000000000000000000000000000000000000000000000000000000000000000000000000000000000000000000000000000000000000000000000000000000000000000000000000000000000000000000000000000000000000000000000000000000000000000000000000000000000000000000000000000000000000000000000000000000000000000000000000000000000000000000000000000000000000000000000000000000000000000000000000000000000000000000000000000000000000000000000000000000000000000000000000000000000000000000001800000000000000000000000000000000000000000000000000000000000000000000000000000000000000000000000000000000000000000000000000000000000000000000000000000000000000000000000000000000000000000000000000000000000000000000000000000000000000000000000000000000000000000000000000000000000000000000000000000000000000000000000000000000000000000000000000000000000000000000000000000000000000000000000000000000000000000000000000000000000000000000000000000000000000000000000000000000000000000000000000000000000000000000000000000000000000000000000000000000000000000000000000000000000000000000000000000000000000000000000000000000000000000000000000000000000000000000000000000000000000000000000000000000000000000000000000000000000000000000000000000000000000000000000000000000000000000000000000000000000000000000000000000000000000000000000000000000000000000000000000000000000000000000000000000000000000000000000000000000000000000000000000000000000000000000000000000000000000000000000000000000000000000000000000000000000000000000000000000000000000000000000000000000000000000000000000000000000000000000000000000000000000000000000000000000000000000000000000000000000000000000000000000000000000000000000000000000000000000000000000000000000000000000000000000000000000000000000000000000000000000000000000000000000000000000000000000000000000000000000000000000000000000000000000000000000000000000000000000000000000000000000000000000000000000000000000000000000000000000000000000000000000000000000000000000000000000000000000000000000000000000000000000000000000000000000000000000000000000000000000000000000000000000000000000000000000000000000000000000000000000000000000000000000000000000000000000000000000000000000000000000000000000000000000000000000000000000000000000000000000000000000000000000000000000000000000000000000000000000000000000000000000000000000000000000000000000000000000000000000000000000000000000000000000000000000000000000000000000000
#049391:00000025
#050321:001c000000000000
#050341:00280000
#009960:0000000000001424
#0159a0:00000014
#016920:24
#015921:00000014
#0169a1:24
#0199a1:00000014
#020921:24
#019920:00000014
#0209a0:24
#0309a0:00000014
#031920:24
#0369a0:00000014
#037920:24
#036921:00000014
#0379a1:24
#048921:00140000
#0489a1:0024
