This file was generated by Ched 2.7.0.0.
#TITLE ""
#ARTIST ""
#DESIGNER ""
#DIFFICULTY 0
#PLAYLEVEL
#SONGID ""
#WAVE ""
#WAVEOFFSET 0
#JACKET ""
#REQUEST "ticks_per_beat 480"
#00002: 4
#BPM01: 170
#00008: 01
#TIL00: ""
#VOLUME: ""
#HISPEED 00
#MEASUREHS 00
#00218:0016
#0091a:0014
#01014:0014
#01114:0014
#01218:0014
#01318:0014
#01412:0014
#01512:0014
#01812:0014
#01810:0041
#01912:0014
#02018:0014
#02118:0014
#02214:0014
#02314:0014
#03312:16
#03318:0016
#03412:16
#04914:0014
#05018:0014
#05112:0014
#0521a:0014
#05314:0014
#05418:0014
#05512:0014
#06418:0014
#0641f:0011
#06514:0014
#0661a:0014
#06712:0014
#06818:0014
#06914:0014
#0701a:0014
#07112:0014
#09118:0014
#09214:0014
#0931a:0014
#09412:0014
#09518:0014
#09614:0014
#0971a:0014
#00112:0016
#00312:0016
#0081a:0014
#00810:0041
#03014:0014
#03118:14
#03114:0014
#03718:16
#03712:0016
#03818:16
#03612:0016
#04018:0016
#04010:0041
#04112:16
#04118:0016
#04212:0016
#04318:16
#04312:0016
#04418:0016
#04512:16
#04518:0016
#04612:0016
#07518:16
#07512:0016
#07510:0041
#07618:16
#07912:16
#07918:0016
#08012:16
#07818:0016
#08212:0016
#08318:16
#08312:0016
#08418:0016
#08512:16
#08518:0016
#08612:0016
#08718:16
#08712:0016
#08818:0016
#08810:0041
#09812:0014
#00018:0026
#01618:0024
#03218:0026
#07412:0026
#0741f:0021
#02810:0041
#004380:0016
#005380:0026
#006320:0016
#007320:0026
#0243a0:0014
#0253a0:0024
#026340:0014
#027340:0024
#028380:0014
#029380:0024
#034380:0016
#035380:0026
#038320:0016
#039320:0026
#047380:16
#048380:0026
#056380:0014
#057380:0024
#058340:0014
#059340:0024
#0603a0:0014
#0613a0:0024
#062320:0014
#063320:0024
#072380:0014
#073380:3434
#074380:24
#076320:0016
#077320:0026
#080380:0016
#081380:0026
#089320:16
#090320:0026
