This file was generated by Ched 2.7.0.0.
#TITLE ""
#ARTIST ""
#DESIGNER ""
#DIFFICULTY 0
#PLAYLEVEL
#SONGID ""
#WAVE ""
#WAVEOFFSET 0
#JACKET ""
#REQUEST "ticks_per_beat 480"
#00002: 4
#BPM01: 170
#00008: 01
#TIL00: ""
#VOLUME: ""
#HISPEED 00
#MEASUREHS 00
#05615:0013
#0561a:00140000
#05612:13
#05712:13
#05715:0013
#00218:0000000000130013
#00215:00000013
#00312:1313
#0031b:0013000000130000
#00315:00130013
#00318:0000001300000013
#00615:0013
#00618:0023
#0061b:00000000000000000033333333333333
#00612:00000000000000000033333333333333
#00815:0000000000130000
#0081b:00000013
#00818:0023
#00810:0041
#00915:1300000000130000
#00918:0013000013000000
#00912:00130000
#0091b:00000013
#01012:13130000
#01018:0013000000001300
#0101b:0013
#01015:0000000000130000
#01112:1300000000000013
#01118:0013000000001300
#01115:0000130000130000
#0111b:0013
#0121b:1313
#01215:0000000000130000
#01218:00000013
#01212:00140000
#01612:00142400
#0161b:13
#0161a:0024
#01312:13
#01318:0013000000001300
#01315:0000130000130000
#0131b:0013
#01412:13130000
#01418:0013000013000000
#01415:0000000000130000
#0141b:00000013
#01515:1300000000130000
#01518:0013000000001300
#01512:0000130000000013
#0151b:0013
#01815:00001313
#01818:0000000000130000
#0181b:0000000000000013
#01810:0041
#01912:0013001300000000
#01918:00130000
#01915:0000000000000013
#0191b:0013
#0201b:0000000000130000
#02015:0000000000000013
#02012:0000000000130000
#02118:13130000
#02112:0013000000000013
#02115:0000001300130000
#0211b:00001313
#0221b:0013001300000013
#02215:00130000
#02212:00001313
#02218:0000000000130000
#02315:0013000000001300
#02318:0000001300000013
#02312:0013
#0231b:0000000000130000
#0241b:0000000000130000
#02415:0000000000130000
#02615:0013001300000000
#02618:00130026
#02712:1313
#02718:0013000000000013
#02715:00130013
#0271b:0000001300130000
#02812:1300000000130000
#02818:0000000000130000
#02815:00000033
#0281b:00000033
#02810:0041
#03018:0013001300000000
#03015:00130000
#03012:0024
#0321b:00000013
#03218:0023
#03212:0024
#03318:13
#03312:00000013
#03315:0023
#0331a:0024
#03415:13000013
#03418:0000000000130013
#03512:13000013
#03518:0013000000130000
#03515:00131300
#0351b:0000001300000013
#03618:00000013
#03615:1324
#0361b:0023
#0371b:13
#03715:00000013
#03712:0023
#03717:0024
#03812:1300000000130000
#0381b:0000000000130000
#03815:0000000000000013
#03918:13000013
#03912:0013000000000000
#0391b:00130000
#03915:0000001300000013
#04018:0000000000140014
#0401a:24
#04012:00240000
#04010:0041
#04114:0014001400000000
#0411b:0000000000130000
#04214:0000000000140014
#04215:13
#04318:0014001400000000
#04312:0000000000130000
#0441a:0000000000140014
#04418:13
#04512:0014001400000000
#0451b:0000000000130000
#04612:0000000000130000
#0461b:0000000000130000
#04615:13
#04618:0000000000000013
#04718:0013000000002400
#04712:00130000
#04715:13
#0471a:0000002400000000
#04714:0000000000240024
#0521a:00140000
#05212:1313
#05218:0000000000130000
#05215:00000013
#04818:2400000000130000
#04812:00000013
#04815:0023
#04918:1300000000130000
#04915:0013000013000000
#0491b:00130000
#04912:00000013
#0501b:13130000
#05015:0013000013000000
#05012:0000000000330000
#05112:0013
#05118:1300000000130000
#05115:00000013
#0511b:0033000000000013
#0531b:13
#05315:0013000000001300
#05318:0000130000130000
#05312:0013
#0541b:13130000
#05415:0013000000330000
#05412:0013
#05512:0013
#05518:0033000000130000
#05515:00000013
#0551b:1300000000000013
#05812:13
#05818:0013
#0591b:13
#05912:0013
#05915:0000000000331300
#0601b:0013
#06118:13
#06112:0013
#06215:13
#0621b:0013
#06318:13000013
#0631b:0013
#06412:0013
#06418:0013
#06415:00000013
#0641b:00000013
#0641f:0011
#06512:1300000000130013
#06518:13000013
#0651b:00131300
#06515:0000001300000000
#06618:0000130000000013
#06612:00130000
#0661b:1300000000130000
#06615:00001313
#06712:1313
#0671b:0013000000130000
#06718:0000001300000000
#06715:00130013
#0681b:0000000000130000
#06816:00000013
#06819:0000000000000013
#06812:13
#06914:13
#06917:0013000000000000
#06912:0000130000130000
#0691b:0000001300000000
#0701b:1300000000130013
#07015:0013000000001300
#07018:00130000
#07012:0000001300000000
#07112:13
#07118:0013000000000013
#07115:00130013
#0711b:0000001300000000
#07212:1313
#07218:0013
#0731a:14
#07318:0015
#07314:14
#07312:0015
#07618:0000240000130013
#07615:13000013
#0761a:24
#07712:13000013
#07718:0013000013000000
#07715:0000130000130000
#0771b:0000001300000013
#08015:0000000000130000
#0801b:0000000000130000
#08012:2400000000000013
#08018:13
#08014:00240000
#08115:1300001300000013
#08118:0013000000001300
#0811b:00130000
#0821a:0000240000140000
#08218:2400000000000014
#08212:00240000
#08312:0014000000000000
#08314:0000001400000000
#0831b:0000000000130000
#08512:0000000000130000
#0851a:0014000000000000
#08518:0000001400000000
#0861a:0000000000140000
#08616:0000000000000014
#08618:13
#08712:0014000000000000
#08716:0000001400000000
#0871b:0000000000130000
#08415:13
#08412:0000000000140000
#08414:0000000000000014
#08815:1300000000000013
#0881b:0000000000130000
#08812:0000000000130000
#08810:0041
#09015:0000000000130000
#09018:0023
#09014:24
#0901b:00000023
#09118:0013000023000000
#09115:2300000000130000
#09112:00230000
#0911b:00000023
#09218:0013000000130000
#09212:23230000
#0921b:0023
#09215:00000023
#09312:0000230000000013
#09315:0013000000002300
#09318:2300000000130000
#0931b:0023
#09415:0000000000130000
#0941b:2323
#09412:00240000
#09418:00000023
#09518:0013000000002300
#09515:0000230000130000
#09512:23
#0951b:0023
#0961b:0013000000000000
#09615:2300230000130000
#09612:0023
#09618:00000023
#09718:0013000000130000
#09712:0000000000000013
#09715:23000023
#0971b:00232300
#0741b:00000013
#07418:0026000023000000
#07412:0026000024000000
#07414:00000024
#0741f:0021
#07518:13000024
#07512:24000013
#07514:00240000
#07515:0023
#0751a:0024
#07510:0041
#00412:13
#02512:0000001300000000
#02518:0000001300000000
#0291b:0000001300000000
#02915:0000001300000000
#02918:0033
#02912:0033
#03118:00000014
#03114:00000014
#0311a:2424
#03112:2424
#07812:13000013
#07815:0023
#0781a:0024
#07818:00000024
#07915:13
#0791b:00000013
#0791a:24
#07918:00242300
#07912:0024
#07914:00000024
#08915:0013000000000000
#0891b:00130000
#08918:1300000000240024
#08912:0000002400000000
#08914:00000024
#09812:00240000
#0981a:00240000
#0981b:23
#05655:0063
#0565a:00140000
#05752:63
#05755:0063
#00655:0063
#00658:0053
#01652:00140000
#0185b:0000000000000013
#01955:0000000000000063
#0195b:0063
#02152:0000000000000013
#0225b:0000000000000013
#02358:0000000000000053
#0245b:0000000000630000
#02455:0000000000630000
#02658:00000016
#02852:5300000000530000
#02858:0000000000530000
#03052:0014
#0315a:1454
#03152:1454
#03154:00000024
#03158:00000024
#03258:0053
#0325b:00000053
#0325a:0014000000000000
#03252:0014000000000000
#03358:53
#03352:00000063
#03355:0063
#0335b:00130000
#03455:63
#03452:00130000
#03652:00130000
#03658:00000063
#0365b:0063
#03655:53
#0375b:63
#03755:00000053
#03752:0053
#03758:00130000
#03852:53
#03855:00130000
#03955:0000005300000000
#0405a:14
#04052:00140000
#04058:0000000000140014
#04154:0014001400000000
#0415b:0000000000530000
#04254:0000000000140014
#04255:53
#04358:0014001400000000
#04352:0000000000630000
#0445a:0000000000140014
#04458:63
#04552:0014001400000000
#0455b:0000000000530000
#04655:53
#0475a:0000001400000000
#0525a:00140000
#05158:53
#05055:0053
#05452:0053
#0555b:63
#05852:63
#05858:0063
#0595b:63
#05952:0053
#05955:00000023
#06052:00130000
#0605b:0053
#06158:53
#06152:0063
#06255:63
#0625b:0063
#06358:63000023
#0635b:0063
#0645b:00130000
#06755:00000053
#06952:0000000000630000
#0715b:0000005300000000
#07252:6353
#07258:0053
#07358:0055
#0735a:54
#07354:54
#07352:0055
#08155:0000005300000000
#0825a:0000140000140000
#08258:1400000000000014
#08252:00140000
#08352:0014000000000000
#08354:0000001400000000
#0835b:0000000000530000
#08552:0000000000630000
#0855a:0014000000000000
#08558:0000001400000000
#0865a:0000140000140000
#08656:0000000000000014
#08658:63
#08752:0014000000000000
#08756:0000001400000000
#0875b:0000000000530000
#08455:53
#08452:0000140000140000
#08454:0000000000000014
#08855:53
#08852:00140000
#07855:00136300
#07852:53000063
#06852:63
#06855:00130000
#0745b:00000053
#07458:0016000053000000
#07452:0016000000000000
#07558:53
#07552:00000063
#07555:0063
#09852:00140000
#0985a:00140000
#01252:00140000
#00452:53
#02552:0013005300000000
#02558:0013005300000000
#02555:0000000000000013
#0255b:0000000000000013
#0295b:0013006300000000
#02955:0013006300000000
#02958:0000000000000013
#02952:0000000000000013
#07655:63
#07955:63
#0795b:00000053
#07958:0053
#08058:53
#04858:14
#08952:0000001400000000
#09054:14
#09452:00140000
#000380:0013
#0003b0:00000033
#001380:33
#0013b0:00230000
#001350:0013
#001320:00000033
#002350:33
#002320:00230000
#004320:13
#004350:00230000
#004380:0013
#0043b0:00000033
#005380:33
#0053b0:00230000
#005350:0013
#005320:00000033
#006350:33
#006320:00230000
#006380:0013
#0063b0:00000000000000000033333333333333
#0073b0:3333332300000000
#006351:0013
#006321:00000000000000000033333333333333
#007321:3333332300000000
#0193b1:0013
#019381:00000023
#019351:0000000000000013
#020321:00230000
#023381:0000000000000013
#0243b1:00230000
#0243b1:0000000000130000
#024381:0000000000000033
#025381:3323000000000000
#024350:0000000000130000
#024320:0000000000000033
#025320:3323000000000000
#025320:0000001300000000
#025350:0000000000333323
#025381:0000001300000000
#0253b1:0000000000333323
#026381:00001626
#028321:13
#028351:00230000
#028321:0000000000130000
#028351:0000000000003333
#029351:3323000000000000
#028380:0000000000130000
#0283b0:0000000000003333
#0293b0:3323000000000000
#0293b0:0000001300000000
#029380:0000000033333323
#029351:0000001300000000
#029321:0000000033333323
#031321:0014
#031341:00000054
#032321:3424000000000000
#0313a0:0014
#031380:00000054
#0323a0:3424000000000000
#032380:0013
#0323b0:00000033
#033380:33
#0333b0:00230000
#033350:0013
#033320:00000033
#034350:33
#034320:00230000
#036350:13
#036320:00230000
#0363b0:0013
#036380:00000033
#0373b0:33
#037380:00230000
#037320:0013
#037350:00000033
#038320:33
#038350:00230000
#039350:0000001300000000
#039320:0000000000230000
#0413b0:0000000000130000
#041380:0000000000000023
#042350:13
#042320:00230000
#043320:0000000000130000
#043350:0000000000000023
#044380:13
#0443b0:00230000
#0453b0:0000000000130000
#045380:0000000000000023
#046350:13
#046320:00230000
#050350:0013
#050320:0000000000332300
#051380:13
#0513b0:0033230000000000
#054320:0013
#054350:0000000000332300
#0553b0:13
#055380:0033230000000000
#056350:0013
#056320:00000033
#057320:33000033
#057350:00333300
#058320:33
#058350:00230000
#058380:0013
#0583b0:00000033
#0593b0:33
#059380:00230000
#059320:0013
#059350:0000000000333300
#060320:33230000
#0603b0:0013
#060380:00000033
#061380:33
#0613b0:00230000
#061320:0013
#061350:00000033
#062350:33
#062320:00230000
#0623b0:0013
#062380:00000033
#063380:33000033
#0633b0:00333300
#0643b0:33230000
#067350:00000013
#068320:33
#068350:00230000
#069320:0000000000130000
#069350:0000000000000023
#0713b0:0000001300000000
#071380:0000000000230000
#072320:13
#072350:00230000
#072380:0013
#0733a0:34
#073380:0035
#074380:3626000000000000
#072321:0013
#073341:34
#073321:0035
#074321:3626000000000000
#074381:0013
#0743b1:00000033
#075381:33
#0753b1:00230000
#075351:0013
#075321:00000033
#076351:33
#076321:00230000
#078321:13
#078351:00230000
#078351:0013
#078321:00000033
#079351:33
#079321:00230000
#079381:0013
#0793b1:00000033
#080381:33
#0803b1:00230000
#081351:0000001300000000
#081321:0000000000230000
#0833b1:0000000000130000
#083381:0000000000000024
#084351:13
#084321:00240000
#085321:0000000000130000
#085341:0000000000000024
#086381:13
#0863a1:00240000
#0873b1:0000000000130000
#087381:0000000000000024
#088351:13
#088321:00240000
