This file was generated by Ched 2.7.0.0.
#TITLE ""
#ARTIST ""
#DESIGNER ""
#DIFFICULTY 0
#PLAYLEVEL
#SONGID ""
#WAVE ""
#WAVEOFFSET 0
#JACKET ""
#REQUEST "ticks_per_beat 480"
#00002: 4
#BPM01: 170
#00008: 01
#TIL00: "0'510:10000, 0'660:1, 36'1140:1, 36'990:10000"
#VOLUME: ""
#HISPEED 00
#MEASUREHS 00
#00216:1212000000120000
#00214:00000012
#00218:0000121200000012
#00212:00121200
#0021c:1212
#0021a:00000012
#01116:00130013
#01117:1300001300000000
#01119:0013000000000000
#01112:0013
#01114:0013000000130013
#0111b:00130013
#0191b:0013001300000000
#01912:00131400
#01917:00131300
#01916:0000001300000013
#0191a:0000000000000014
#03918:0013000000001300
#03912:1300131300000013
#03915:00000013000016000000000013000000
#0391b:1300130000130013
#03916:0014
#04612:00131313
#0461b:1300130013130000
#04615:0013001600000000
#04616:1300000000130000
#04618:00000013000000000000000000000000
#04619:0000000000000013
#04617:00000013
#04716:00001414140000000000000000000000
#0471b:13
#04712:1300002400230000
#0471a:0000002400242400
#04718:0000000000000023
#04715:00000023
#06517:0000131300000000
#06515:0013000000000000
#0651b:1300000000000013
#06512:00131300
#06514:0000001300130000
#06519:00000013
#06516:00000013
#0671b:1313
#06716:0013
#06712:0000001300001300
#06718:0013000000000000
#06715:0000130000160000
#06717:00000013
#07019:0000000000130000
#0701b:13001313
#07014:0000000000000013
#07012:00131313
#07016:0000001200130000
#07017:0000000000000013
#07018:0012000000000000
#07116:13130000
#07117:0013001300000000
#0711b:13130013
#07112:0013001300001300
#07115:0000000000000013
#07118:0000000000000013
#00112:12
#00118:1212000013000000
#00116:0000121200000000
#0011c:00120000
#00115:0013
#00318:0012000000001200
#00312:0012
#00314:0000001200120000
#0031a:1200000000000012
#00316:00120012
#0031c:0012
#0061b:00000013000013001300130000000000
#00615:00000000000000000013001300000000
#00618:0000000000001313
#00612:14000000000000000000000000130013
#00617:13
#00616:0013130000000000
#00816:00000013
#0081b:00000013
#00814:0000000000130000
#00812:0023
#00810:0041
#0091b:00130013
#00916:00130000
#00914:0013000000000000
#00919:0000000000130000
#00912:00000013
#0101b:13130013
#01012:0014000013001300
#01014:0000000000130000
#01016:0000000000000013
#01019:0000000000130000
#01017:0013130000000000
#01812:0000000014000014
#01817:0013
#01814:0000000000140000
#01816:00000014
#01810:0041
#02012:0000000013000014
#0201b:00131300
#02016:00140014
#02015:0000001300000000
#02018:00000000000000130000000000000000
#0201a:0000000000140000
#0211b:1300000013000013
#02115:0000001300000000
#02118:00000000000000130000000000000000
#02119:0000000000130000
#0211a:00000013
#02112:2313
#02116:000000000000000000000000000000000000000000000014140000000000000000000000000000000000000000000074640000000000000000000000000000000000000000000000000000000000000000000000000000000000000000000000000000000000000000000000000000000000000000000000000000000000000000000000000000000000000000000000000000000000000000000000000000000000000000000000000000000000000000000000000000000000000000000000
#02212:0013000013000013
#0221b:00131300
#02215:00000000130000130000000000000000
#02214:1300000000130000
#02217:13
#02218:0000001300000000
#02213:00000013
#02316:13000014
#02312:0000000014000013
#0231b:0013000000000013
#0231b:0013000000000000
#0231a:0014
#02314:0000001300130000
#02319:1300000000130000
#02412:0013001300120000
#02415:13130000
#02418:00000000001300000000000000000000
#0241b:0000001300000000
#02414:0018
#0241a:0000000000000012
#02417:0000000000120000
#0241c:00000012
#02615:0013000000000000
#02614:00130000
#02613:0000001300000000
#02618:0013000016002600
#02619:00130000
#0261a:0000001300000000
#02612:00002616
#03512:00131300
#03519:0000000000130000
#0351b:00131313
#03514:0000000000000013
#03515:16000013000013000000000000000000
#03518:0013001300000000
#03612:1323
#03616:0013000000000000
#0361a:00140000
#0361b:0023
#03816:0000000013000013
#0381b:0013
#03817:0000000000130000
#03818:13
#03815:13
#03812:0000000000130000
#03814:00000013
#06417:0000000000130000
#0641b:0013
#06416:1200000000000013
#06412:00001313
#06414:0000000000130000
#06419:0000000000000013
#06418:12
#0641f:0011
#06612:0000001300000000
#06619:13000013
#0661b:0013000000130000
#06615:00161600
#06617:0000001300000013
#06616:0000000000130000
#06816:13
#06812:0013
#06817:0000000012120000
#0681b:1300000000130000
#06818:00000013
#06815:0000000000000013
#00416:0012000000000000
#00412:1213
#00418:0012001300000000
#0041c:12
#00415:00000000000000130000000000000000
#0041b:0013
#00515:0013
#00518:0013
#00516:13
#0051a:14
#00517:0013130000000000
#00512:00000013000013000000000000000000
#01212:13135313
#01217:13001313
#0121a:0000000000130000
#01215:0000000013000000000000530053000000000000000000000000000000000000
#01218:00000013000000000000000000000000
#01213:0000000000000000005300000000005300000000000000000000000000000000
#01214:00000000005300530000000000000000
#01216:0000005300000000
#0131b:00000013
#01314:0000000000130000
#01312:00130013
#01317:00130000
#01319:0013000000000000
#01419:0000000000130000
#0141b:00001313
#01417:0000000000000013
#01414:0000000000130000
#01412:13130013
#01416:0013130000000000
#0141a:0014000000000000
#01516:1300001300000000
#01514:0013000000000000
#01519:0013000000000000
#01512:0000130000000013
#01515:0000000000131600
#0151b:00130000
#01518:0016
#01612:16
#01618:0000000013000000000000530053000000000000000000000000000000000000
#01615:00000013000000002600000000000000
#0161b:00135300
#0161a:0000000000000000005300000000005300000000000000000000000000000000
#01619:00000000005300530000000000000000
#01617:0000005300000000
#0251c:1200001200000000
#0251a:0012000000000000
#02514:0000000000120012
#02512:00001212
#02517:0000001200000000
#02712:12141213
#0271a:14
#02715:0012000000120000
#02718:0012000000000000
#0271c:00120012
#02716:0000001200000000
#02719:0000001200000012
#0271b:0013
#0281b:0013
#02812:2200000013120014
#02815:00000013
#0281c:22
#02819:0022000000000000
#02816:00220000
#02813:0000002200000000
#02810:0041
#02915:15
#02912:0016000000000000
#0291a:0000000000140000
#02916:00000015
#02918:0000000013000016
#0291c:0000001200000000
#03016:0013001300000000
#0301b:0013001323000000
#03012:00132400
#03017:00130000
#03216:0000000024132413
#03212:0026000023001300
#03218:0026000000000000
#03312:13
#03317:2300000000130013
#0331b:00002313
#03316:00002424
#03412:0013
#03415:0000000000130000
#03418:00000013
#0341b:1300000000000013
#03416:23
#03715:00002313
#03712:1300000000130013
#03718:00002313
#0371b:1300000000130013
#04012:1600260000140000
#04016:0000000000140014
#04015:00001616
#0401a:0000000000000014
#04018:26160000
#04010:0041
#04116:0014001414000000
#04112:0014000000000000
#04115:16160000
#0411a:0000001400000000
#04117:0000000000130000
#04119:00000013
#0411b:0000000000000013
#04215:00000013000016000000000000000000
#04217:13
#04212:1300130000000014
#04218:0013000000000000
#0421b:00130000
#0421a:0000000000140000
#04216:0000000014141414
#04417:0014
#04416:1300000000140014
#04412:0000130000140000
#04415:0013001600001400
#0441a:0000000000000014
#0441b:13130000
#04418:00000013000000000000000000000000
#04517:14
#04516:0014001400130000
#04512:0014000016000013
#04515:00140000
#0451a:0000001400000000
#04514:00000013
#0531b:00000013
#05314:0000000000130000
#05312:00130013
#05319:0013000000000000
#05317:00130000
#05419:0000000000130000
#0541b:0013000013001300
#05417:0000140000000013
#05414:0000000000130000
#05412:00130013
#05413:14
#05415:0014000000000000
#05516:1300001300000000
#05514:0013000000000000
#05519:0013000000000000
#05512:0000130000000013
#05515:0000000000131600
#0551b:00130000
#05518:0016
#05618:0000000013000000000000530053000000000000000000000000000000000000
#05615:00000013000000000000000000000000
#05612:1612
#0561a:0000000000000000005300000000005300000000000000001200000000000000
#0561b:00135300
#05619:00000000005300530000000000000000
#05617:0000005300000000
#05215:0000000013000000000000530053000000000000130000000000000000000000
#05218:00000013000000000000000000000000
#05218:00000013000000000000000000000000
#05212:13135313
#05217:13000013
#05213:0000000000000000005300000000005300000000000000000000000000000000
#05214:00000000005300530000000000000000
#05216:0000005300000000
#0571a:12
#0571c:0012
#05714:00000012
#05812:0012
#05814:12
#0581a:00000012
#0591c:12000012
#05912:00121200
#06212:00000012
#0621c:0012
#0621a:12
#06316:1212120012001200
#06314:0012000000000000
#06318:1200121212001200
#0631a:0000001200000000
#06312:0000000000120000
#0631c:0000000000000012
#06916:0012000000000000
#06912:1300000000130000
#06918:0000001200000013
#0691b:00131300
#06917:0000000012120000
#06915:00000013
#07212:1400000000000012
#07216:000000000000000000000000000000000000000000000000000000000000000000000000000000000000000000000000000000000000000000000000000000000000000000000000000000000000000000000000000000000000000000000000000000000000000000000000000000000000000000000000000000000000000000000000000000000000000000000000000000000000000000000000000000000000000000000000000000000000000000000000000000000000000000000000000000000000000000000000000000000000000000000000000000000000000000000000000000000000000000000000000000000000000000000000000000000000000000000000000000000000000000000000000000000000000000000000000000000000000000000000000000000000000000000000000000000000000000000000000000000000000000000000000000000000000000000000000000000000000000000000000000000000000000000000000000000000000000000000000000000000000000000000000000000000000000000000000000000000000000000000000000000000000000000000000000000000000000000000000000000000000000000000000000000000000000000000000000000000000000000074140000000000000000000000000000000000000000000000000000000000000000000000000000000000000000000000000000000000000000000000000000000000000000000000000000000000000000000000000000000000000000000000000000000000000000000000000000000000000000000000000000000000000000000000000000000000000000000000000000000000000000000000000000000000000000000000000000000000000000000000000000000000000000000000000000000000000000000000000000000000000000000000000000000000000000000000000000000000000000000000000000000000000000000000000000000000000000000000000000000000000000000000000000000000000000000000000000000000000000000000000000000000000000000000000000000000000000000000000000000000000000000000000000000000000000000000000000000000000000000000000000000000000000000000000000000000000000000000000000000000000000000000000000000000000000000000000000000000000000000000000000000000000000000000000000000000000000000000000000000000000000000000000000000000000000000000000000000000000000000000000000000000000000000000000000000000000000000000000000000000000000000000000000000000000000000000000000000000000000000000000000000000000000000000000000000000000000000000000000000000000000000000000000000000000000000000000000000000000000000000000000000000000000000000000000000000000000000000000000000000000000000000000000000000000000000000000000000000000000000000000000000000000000000000000000000000000000000000000000000000000000000000000000000000000000000000000000000000000000000000120000000000000000000000000000000000000000000000000000000000000000000000000000000000000000000000000000000000000000000000000000000000000000000000000000000000000000000000000000000000000000000000000000000000000000000000000000000000000000000000000000000000000000000000000000000000000000000000000000000000000000000000000000000000000000000000000000000000000000000000000000000000000000000000000000000000000000000000000000000000000000000000000000000000000000000000000000000000000000000000000000000000000000000000000000000000000000000000000000000000000000000000000000000000000000000000000000000000000000000000000000000000000000000000000000000000000000000000000000000000000000000000000000000000000000000000000000000000000000000000000000000000000000000000000000000000000000000000000000000000000000000000000000000000000000000000000000000000000000000000000000000000000000000000000000000000000000000000000000000000000000000000000000000000000000000000000000000000000000000000240000000000000000000000000000000000000000000000000000000000000000000000000000000000000000000000000000000000000000000000000000000000000000000000000000000000000000000000000000000000000000000000000000000000000000000000000000000000000000000000000000000000000000000000000000000000000000000000000000000000000000000000000000000000000000000000000000000000000000000000000000000000000000000000000000000000000000000000000000000000000000000000000000000000000000000000000000000000000000000000
#0721a:1424
#07218:00000000000000000000002400000000
#07418:1626000000002400
#07416:0000000024130000
#07417:0000000000000013
#07412:2616000023001300
#0741f:0021
#08119:00000013
#08112:1300001300000013
#0811b:1300000000130000
#08116:00001414140000001400000000000000
#08114:00000013
#08117:0000000000000013
#08115:0000001600000000
#08312:0013000000130000
#0831b:0000001300001313
#08316:1400140014140000
#08315:0014000000000000
#08317:0000001400000000
#08812:0000130013130000
#0881b:13131313
#08817:1300000000130000
#08814:0000000000000013
#08815:0013001600000000
#08818:00000013000000000000000000000000
#08816:00000013
#08810:0041
#08916:00001414140000000000000000000000
#0891b:13
#08912:1300002400230000
#0891a:0000002400242400
#08918:0000000000000023
#08915:00000023
#08016:0000000013000013
#0801b:00131300
#08017:0000000000130000
#08012:0000130000130000
#08014:00000013
#08015:0013001600000000
#08018:00000013000000000000000000000000
#07718:0013000000130000
#07715:00000013000016000000000000001300
#07712:13130013
#0771b:00131300
#08216:00001414
#08212:0000260000130000
#08215:0000000000140000
#0821b:0000000000000013
#08217:0000000000000014
#08214:28
#08218:00260000
#08416:13
#08412:1300130000000013
#08418:0013000000000000
#08415:00000013000016000000000013001400
#0841b:0000130000130000
#08417:0000000014140000
#08616:13001414
#08612:1300130000001313
#08618:0013000000000000
#08615:00000013000000000000000000001400
#0861b:0000130013130000
#08614:0000001300000000
#08619:0000001300000000
#08617:0000000000140000
#07515:0013001600000000
#07518:00000013000000000000000000000000
#07512:00130000
#0751b:00132313
#07517:0000000000130000
#07516:0000000024000013
#0751a:24
#07514:00000024
#07510:0041
#07618:0013000000000000
#07615:00000013000016000000000000000000
#0761b:00131313
#07612:24131300
#07619:0000000000130000
#07614:0000000000000013
#0781b:13002313
#07815:00131600000000160000130000001300
#07818:0000131600130013
#07812:00000016001300002300000013000000
#07918:0013000023001300
#07915:00000013000016002300000013000000
#0791b:0000130000130013
#07912:0000130000130013
#09417:13000013
#09414:00000000005400540000130000000000
#09419:0000000000130000
#09415:0000000013000000000000540054000000000000000000000000000000000000
#09412:24145423
#09418:00000013000000000000000000000000
#0941b:00232300
#09413:0000000000000000005400000000005400000000000000000000000000000000
#09416:0000005400000000
#09512:23130023
#09519:0013000000000000
#09514:0000000000130000
#0951b:00232313
#09619:0000000000130000
#0961b:0013000000001300
#09617:0000000000000013
#09614:0000000000130000
#09616:0013130023000000
#09612:24240023
#09714:0013000000000000
#09719:0013000000000000
#09712:0000130000000013
#09716:2300001300000000
#09715:0000000000132600
#0971b:00230000
#09718:0026
#05116:00130013
#05117:1300001300000000
#05119:0013000000000000
#05112:0000000013160000
#05114:0013000000000000
#0511b:00130013
#05118:0000000000000016
#0501b:00130013
#05012:0013000013001300
#05014:0000000000130000
#05016:0000000000000013
#05019:1400000000130000
#05017:0014000000000000
#05015:00140000
#0491b:00130013
#04919:0000000000130000
#04912:00000013
#04914:0013000000000000
#04916:00130000
#09016:00000013
#09014:0000000000130000
#09012:260000000000000000000000000000000000000000000000000000000000000000000000000000000000000000000000000000000000000000000000000000000000000000000000000000000000000000000000000000000000000000000000000000000000000000000000000000000000000000000000000000000000000000000000000000000000000000000000000000000000000000000000000000000000000000000000000000000000000000000000000000000000000000000000000000000000000000000000000000000000000000000000000000000000000000000000000000000000000000000073007300000000000000000000000000000000000000000000000000000000000000000000000000000000000000000000000000000000000000000000000000000000000000000000000000000000000000000000000000000000000000000000000000000000000000000000000000000000000000000000000000000000000000000000000000000000000000000000000000000000000000000000000000000000000000000000000000000000000000000000000000000000000000000000000000000000000000000000000000000000000000000000000000000000000000000000000000000000000000000000560000000000000000000000000000000000000000000000000000000000000000000000000000000000000000000000000000000000000000000000000000000000000000000000000000000000000000000000000000000000000000000000000000000000000000000000000000000000000000000000000000000000000000000000000000000000000000000000000000000000000000000000000000000000000000000000000000000000000000000000000000000000000000000000000000000000000000000000000000000000000000000000000000000000000000000000000000000000000000000000000000000000000000000000000000000000000000000000000000000000000000000000000000000000000000000000000000000000000000000000000000000000000000000000000000000000000000000000000000000000000000000000000000000000000000000000000000000000000000000000000000000000000000000000000000000000000000000000000000000000000000000000000000000000000000000000000000000000000000000000000000000000000000000000000000000000000000000000000000000000000000000000000000000000000000000000000000000000000000000000230000000000000000000000000000000000000000000000000000000000000000000000000000000000000000000000000000000000000000000000000000000000000000000000000000000000000000000000000000000000000000000000000000000000000000000000000000000000000000000000000000000000000000000000000000000000000000000000000000000000000000000000000000000000000000000000000000000000000000000000000000000000000000000000000000000000000000000000000000000000000000000000000000000000000000000000000000000000000000000000000000000000000000000000000000000000000000000000000000000000000000000000000000000000000000000000000000000000000000000000000000000000000000000000000000000000000000000000000000000000000000000000000000000000000000000000000000000000000000000000000000000000000000000000000000000000000000000000000000000000000000000000000000000000000000000000000000000000000000000000000000000000000000000000000000000000000000000000000000000000000000000000000000000000000000000000000000000000000000000000000000000000000000000000000000000000000000000000000000000000000000000000000000000000000000000000000000000000000000000000000000000000000000000000000000000000000000000000000000000000000000000000000000000000000000000000000000000000000000000000000000000000000000000000000000000000000000000000000000000000000000000000000000000000000000000000000000000000000000000000000000000000000000000000000000000000000000000000000000000000000000000000000000000000000000000000000000000000000000000000000000000000000000000000000000000000000000000000000000000000000000000000000000000000000000000000000000000000000000000000000000000000000000000000000000000000000000000000000000000000000000000000000000000000000000000000000000000000000000000000000000000000000000000000000000000000000000000000000000000000000000000000000000000000000000000000000000000000000000000000000000000000000000000000000000000000000000000000000000000000000000000000000000000000000000000000000000000000000000000000
#09018:2600007300000000000000730000000000000000000000000000000000730000560000000000000000000000000000000000000000000000000000000000000000000000000000000000000000000000000000000000000000000000000000000000000000000000000000000000000000000000000000000000000000000000
#09019:00000023
#0901b:000000000000000000000000000000000000000000000000000000000000000000000000000000000000000000730000000000000000000000000000000000000000000000000000000000000000000000000000000000000000000000000000000000000000000000000000000000000000000000000000000000000000000000000000000000000000000000000000000000000000000000000000000000000000000000000000000000000000000000000000000000000000000000000000000000000000000000000000000000000000000000000000000000000000000000000000000000000000000000000073007300000000000000000000000000000000000000000000000000000000000000000000000000000000000000000000000000000000000000000000000000000000000000000000000000000000000000000000000000000000000000000000000000000000000000000000000000000000000000000000000000000000000000000000000000000000000000000000000000000000000000000000000000000000000000000000000000000000000000000000000000000000000000000000000000000000000000000000000000000000000000000000000000000000000000000000000000000000000000000000000000000000000000000000000000000000000000000000000000000000000000000000000000000000000000000000000000000000000000000000000000000000000000000000000000000000000000000000000000000000000000000000000000000000000000000000000000000000000000000000000000000000000000000000000000000000000000000000000000000000000000000000000000000000000000000000000000000000000000000000000000000000000000000000000000000000000000000000000000000000000000000000000000000000000000000000000000000000000000000000000000000000000000000000000000000000000000000000000000000000000000000000000000000000000000000000000000000000000000000000000000000000000000000000000000000000000000000000000000000000000000000000000000000000000000000000000000000000000000000000000000000000000000000000000000000000000000000000000000000000000000000000000000000000000000000000000000000000000000000000000000000000000000000000000000000000000000000000000000000000000000000000000000000000000000000000000000000000000000000000000000000000000000000000000000000000000000000000000000000000000000000000000000000000000000000000000000000000000000000000000000000000000000000000000000000000000000000000000000000000000000000000000000000000000000000000000000000000000000000000000000000000000000000000000000000000000000000000000000000000000000000000000000000000000000000000000000000000000000000000000000000000000000000000000000000000000000000000000000000000000000000000000000000000000000000000000000000000000000000000000000000000000000000000000000000000000000000000000000000000000000000000000000000000000000000000000000000000000000000000000000000000000000000000000000000000000000000000000000000000000000000000000000000000000000000000000000000000000000000000000000000000000000000000000000000000000000000000000000000000000000000000000000000000000000000000000000000000000000000000000000000000000000000000000000000000000000000000000000000000000000000000000000000000000000000000000000000000000000000000000000000000000000000000000000000000000000000000000000000000000000000000000000000000000000000000000000000000000000000000000000000000000000000000000000000000000000000000000000000000000000000000000000000000000000000000000000000000000000000000000000000000000000000000000000000000000000000000000000000000000000000000000000000000000000000000000000000000000000000000000000000000000000000000000000000000000000000000000000000000000000000000000000000000000000000000000000000000000000000000000000000000000000000000000000000000000000000000000000000000000000000000000000000000000000000000000000000000000000000000000000000000000000000000000000000000000000000000000000000000000000000000000000000000000000000000000000000000000000000000000000000000000000000000000000000000000000000000000000000000000000000000000000000000000000000000000000000000000000000000000000000000000000000000000000000000000000000000000000000000000000000000000000000000000000000000000000000000000000000000
#09015:0000007300000000000000000000000000000000000000000000000000730000000000000000000000000000000000000000000000000000000000000000000000000000000000000000000000000000000000000000000000000000000000000000000000000000000000000000000000000000000000000000000000000000
#0911b:23130023
#09114:0013000000000000
#09119:0000000000130000
#09112:00002313
#09116:00230000
#09217:0013130023000000
#09214:0000000000130000
#09212:0013000000001300
#09216:0000000000000013
#09219:0000000000130000
#0921a:24240000
#0921b:00000023
#09319:0013000000000000
#09314:0013000000140014
#0931b:00130013
#09317:2300001300000000
#09316:00230024
#09312:0024
#04816:0000000000131300
#0481b:23000013
#04812:2423
#00019:0014
#00013:00001455
#00018:00000055
#04316:1414141414130000
#04314:00000013
#04312:0000001400000013
#0431a:0014000000000000
#0601c:0012
#06014:00000012
#06017:0012
#06016:12
#06018:12
#06114:12
#06112:0012
#0611a:00000012
#0731b:1300001300000000
#07318:00001300000000000000002400000000
#07312:2400000014000014
#07314:00000024000000000000140000000000
#07316:0000002400000024
#0731a:0024
#08518:1316
#0851b:0013000000130000
#08517:0014000000000000
#08515:0000131400000000
#08512:0000001300001313
#08516:0000000000140000
#08716:1400140014140000
#08717:0014000000000000
#0871b:1313000013001313
#08715:0000001400000000
#08712:0000131300130000
#09818:00001300005400540000000000000000
#0981a:00145400
#09815:00000013000000000000000000000000
#09812:26130000
#09819:0000000000000000005400000000005400000000000000000000000000000000
#09817:0000000000000000000000540054000000000000000000000000000000000000
#09816:0000005400000000
#00718:26
#00716:0025000000000000
#00714:00240000
#00712:0000002300000000
#0311a:24
#03112:2323
#0311b:0023
#01957:0053
#01952:0054
#01956:0000000000000063
#0195a:0000000000000064
#04752:0000001400000000
#0475a:0000001400141400
#06752:00000063
#06757:00000063
#07157:0000006300000000
#07152:0000006300000000
#00856:00000053
#0095b:00530000
#00952:00000063
#0105b:00530000
#01052:00000053
#01056:0000000000000023
#01852:0000000000000054
#01857:0053
#0185b:0000000000000013
#0215b:5300000000000063
#02152:5353
#02156:000000000000000000000000000000000000000000000054540000000000000000000000000000000000000000000000000000000000000000000000000000000000000000000000000000000000000000000000000000000000000000000000000000000000000000000000000000000000000000000000000000000000000000000000000000000000000000000000000000000000000000000000000000000000000000000000330000000000000000000000000000000000000000000000
#0235b:0063000000000053
#02356:23
#03252:0016000053006300
#03258:0016000000000000
#03256:0000000044234423
#03253:14
#03259:14
#03552:0053
#0355b:00000063
#03652:53340000
#0365a:00440000
#03656:0023000000000000
#03857:0000000000530000
#03858:53
#03855:63
#03852:00140000
#0385a:00140000
#03956:0024
#03955:0000001600000000
#03952:0000005300000000
#06457:0000000000530000
#0645b:00435300
#06452:00330063
#06456:6200000000000063
#06458:52
#06557:0000005300000000
#06556:00000063
#06856:63
#0685b:63
#06852:00130000
#06857:00130000
#00155:0053
#00158:0063
#00452:5253
#00456:0022000000000000
#00458:0022000000001300
#0045c:62
#0045b:0063
#00455:00000013
#00555:0053
#00558:0063
#00557:00530000
#0055b:00000013
#00552:00000013
#00656:00630000
#0115b:00630000
#01157:0000002300000000
#0135b:00000053
#01352:00630033
#01357:00430000
#0145b:00000063
#01457:0000000000000023
#01452:00630033
#01456:00430000
#01552:00530000
#01556:0000002300000000
#0155b:00430000
#01558:0016
#01555:00000016
#01652:16
#01655:0016
#02056:00140000
#0205b:00130000
#02257:2300000000000043
#02252:0000000000000053
#0225b:0063
#02452:0000000000520000
#02557:0012000000000012
#0255a:0012000000000000
#0255c:0000006200000000
#02554:0000000000000012
#0275a:44
#02752:00340053
#0275b:0063
#02959:0013000000000000
#02958:0000000000000016
#02954:0000000000000013
#02952:0016000000000000
#03052:0054
#03057:00000014
#0305b:00000013
#03352:63
#03356:00143434
#0335a:00140000
#03357:5300000000230023
#0335b:00006353
#03755:00006353
#03752:5300000000230023
#03758:00145363
#0375b:6300000000230023
#03754:00140000
#04052:1600160000340000
#04056:0000000000440034
#0405a:0000000000000044
#04058:16160000
#04456:0000000000440034
#04452:0000330000340000
#0445a:0000000000000044
#0445b:43
#04556:0044003400000000
#04552:0034000000000000
#0455a:0000004400000000
#0535b:00000053
#05352:00630033
#05357:00430000
#0545b:00000063
#05457:0000440000000023
#05452:00630033
#05552:00530000
#05556:0000002300000000
#0555b:00430000
#05558:0016
#05555:00000016
#05652:1652
#0575a:52
#0575c:0062
#05852:0062
#05854:62
#0595c:52000052
#05952:0062
#06252:00000062
#0625c:0062
#0625a:52
#06356:6222620062006200
#06354:0022000000000000
#06358:5200522252005200
#0635a:0000002200000000
#06352:0000000000220000
#0635c:0000000000000022
#06656:0000000000630000
#08352:0033000000630000
#08355:0044000000000000
#0835b:0000004300000000
#08357:0000003400000000
#08057:0000000000530000
#08058:43
#08055:33
#08156:0024
#08155:0000001600000000
#08152:0000005300000000
#0885b:43000023
#08852:00330000
#08857:0000000000530000
#07456:0000000044230000
#07457:0000000000000023
#07452:36005363
#07458:0046000000004400
#08252:0000160000330000
#08255:0000000000440000
#0825b:0000000000000043
#08257:0000000000000034
#08254:18
#08258:00160000
#08452:3300000000000033
#0845b:0000430000430000
#08457:0000000000340000
#08455:0000000000000044
#08652:3300000000000033
#0865b:0000430000430000
#08657:0000000000340000
#08655:0000000000000044
#07552:33
#0755a:44
#07557:0000000000230000
#07556:0000000034000023
#0755b:00006353
#07554:00000034
#07652:3453
#0765b:43000063
#07855:0000000000230023
#07858:0000000000230023
#07852:00005363
#0785b:00006353
#07952:3300000000230023
#0795b:4300000000230023
#07958:00005363
#07955:00006353
#09457:00000063
#09452:00000033
#09552:00630033
#0955b:00430053
#0965b:00000063
#09657:0000000000000023
#09656:00630000
#09652:00340033
#09752:00530000
#09756:0000002300000000
#0975b:00430000
#09758:0016
#09755:00000016
#0505b:00530000
#05052:00000053
#05056:0000000000000023
#0515b:00630000
#05157:0000002300000000
#04952:00000063
#0495b:00530000
#09056:00000053
#09055:0000005300000000000000000000000000000000000000000000000000000000000000000000000000000000000000000000000000000000000000000000000000000000000000000000000000000000000000000000000000000000000000000000000000000000000000000000000000000000000000000000000000000000
#09052:000000000000000000000000000000000000000000000000000000000000000000000000000000000000000000000000000000000000000000000000000000000000000000000000000000000000000000000000000000000000000000000000000000000000000000000000000000000000000000000000000000000000000000000000000000000000000000000000000000000000000000000000000000000000000000000000000000000000000000000000000000000000000000000000000000000000000000000000000000000000000000000000000000000000000000000000000000000000000000000000002300000000000000000000000000000000000000000000000000000000000000000000000000000000000000000000000000000000000000000000000000000000000000000000000000000000000000000000000000000000000000000000000000000000000000000000000000000000000000000000000000000000000000000000000000000000000000000000000000000000000000000000000000000000000000000000000000000000000000000000000000000000000000000000000000000000000000000000000000000000000000000000000000000000000000000000000000000000000000000000000000000000000000000000000000000000000000000000000000000000000000000000000000000000000000000000000000000000000000000000000000000000000000000000000000000000000000000000000000000000000000000000000000000000000000000000000000000000000000000000000000000000000000000000000000000000000000000000000000000000000000000000000000000000000000000000000000000000000000000000000000000000000000000000000000000000000000000000000000000000000000000000000000000000000000000000000000000000000000000000000000000000000000000000000000000000000000000000000000000000000000000000000000000000000000000000000000000000000000000000000000000000000000000000000000000000000000000000000000000000000000000000000000000000000000000000000000000000000000000000000000000000000000000000000000000000000000000000000000000000000000000000000000000000000000000000000000000000000000000000000000000000000000000000000000000000000000000000000000000000000000000000000000000000000000000000000000000000000000000000000000000000000000000000000000000000000000000000000000000000000000000000000000000000000000000000000000000000000000000000000000000000000000000000000000000000000000000000000000000000000000000000000000000000000000000000000000000000000000000000000000000000000000000000000000000000000000000000000000000000000000000000000000000000000000000000000000000000000000000000000000000000000000000000000000000000000000000000000000000000000000000000000000000000000000000000000000000000000000000000000000000000000000000000000000000000000000000000000000000000000000000000000000000000000000000000000000000000000000000000000000000000000000000000000000000000000000000000000000000000000000000000000000000000000000000000000000000000000000000000000000000000000000000000000000000000000000000000000000000000000000000000000000000000000000000000000000000000000000000000000000000000000000000000000000000000000000000000000000000000000000000000000000000000000000000000000000000000000000000000000000000000000000000000000000000000000000000000000000000000000000000000000000000000000000000000000000000000000000000000000000000000000000000000000000000000000000000000000000000000000000000000000000000000000000000000000000000000000000000000000000000000000000000000000000000000000000000000000000000000000000000000000000000000000000000000000000000000000000000000000000000000000000000000000000000000000000000000000000000000000000000000000000000000000000000000000000000000000000000000000000000000000000000000000000000000000000000000000000000000000000000000000000000000000000000000000000000000000000000000000000000000000000000000000000000000000000000000000000000000000000000000000000000000000000000000000000000000000000000000000000000000000000000000000000000000000000000000000000000000000000000000000000000000000000000000000000000000000000000000000000000000000000000000000000000000000000000000000000000000000000000000000000000000000000000000000000000000000000000000
#09058:0000006300000000000000000000000000000000000000000000000000000000000000000000000000000000000000000000000000000000000000000000000000000000000000000000000000000000000000000000000000000000000000000000000000000000000000000000000000000000000000000000000000000000
#0905b:000000000000000000000000000000000000000000000000000000000000000000000000000000000000000000000000000000000000000000000000000000000000000000000000000000000000000000000000000000000000000000000000000000000000000000000000000000000000000000000000000000000000000000000000000000000000000000000000000000000000000000000000000000000000000000000000000000000000000000000000000000000000000000000000000000000000000000000000000000000000000000000000000000000000000000000000000000000000000000000000002300000000000000000000000000000000000000000000000000000000000000000000000000000000000000000000000000000000000000000000000000000000000000000000000000000000000000000000000000000000000000000000000000000000000000000000000000000000000000000000000000000000000000000000000000000000000000000000000000000000000000000000000000000000000000000000000000000000000000000000000000000000000000000000000000000000000000000000000000000000000000000000000000000000000000000000000000000000000000000000000000000000000000000000000000000000000000000000000000000000000000000000000000000000000000000000000000000000000000000000000000000000000000000000000000000000000000000000000000000000000000000000000000000000000000000000000000000000000000000000000000000000000000000000000000000000000000000000000000000000000000000000000000000000000000000000000000000000000000000000000000000000000000000000000000000000000000000000000000000000000000000000000000000000000000000000000000000000000000000000000000000000000000000000000000000000000000000000000000000000000000000000000000000000000000000000000000000000000000000000000000000000000000000000000000000000000000000000000000000000000000000000000000000000000000000000000000000000000000000000000000000000000000000000000000000000000000000000000000000000000000000000000000000000000000000000000000000000000000000000000000000000000000000000000000000000000000000000000000000000000000000000000000000000000000000000000000000000000000000000000000000000000000000000000000000000000000000000000000000000000000000000000000000000000000000000000000000000000000000000000000000000000000000000000000000000000000000000000000000000000000000000000000000000000000000000000000000000000000000000000000000000000000000000000000000000000000000000000000000000000000000000000000000000000000000000000000000000000000000000000000000000000000000000000000000000000000000000000000000000000000000000000000000000000000000000000000000000000000000000000000000000000000000000000000000000000000000000000000000000000000000000000000000000000000000000000000000000000000000000000000000000000000000000000000000000000000000000000000000000000000000000000000000000000000000000000000000000000000000000000000000000000000000000000000000000000000000000000000000000000000000000000000000000000000000000000000000000000000000000000000000000000000000000000000000000000000000000000000000000000000000000000000000000000000000000000000000000000000000000000000000000000000000000000000000000000000000000000000000000000000000000000000000000000000000000000000000000000000000000000000000000000000000000000000000000000000000000000000000000000000000000000000000000000000000000000000000000000000000000000000000000000000000000000000000000000000000000000000000000000000000000000000000000000000000000000000000000000000000000000000000000000000000000000000000000000000000000000000000000000000000000000000000000000000000000000000000000000000000000000000000000000000000000000000000000000000000000000000000000000000000000000000000000000000000000000000000000000000000000000000000000000000000000000000000000000000000000000000000000000000000000000000000000000000000000000000000000000000000000000000000000000000000000000000000000000000000000000000000000000000000000000000000000000000000000000000000000000000000000000000000000000000000000000000000000000000000000000000000000000000000000000000000000000000000000000000000000000000000000
#0915b:00530000
#09152:00000063
#09257:00530000
#09252:00000053
#09256:0000000000000023
#0935b:00630000
#09357:0000002300000000
#04856:00000053
#04852:14
#00059:0054
#00053:0064
#0315a:64
#03155:00140000
#03152:00135300
#0315b:0053
#0345b:53
#03456:63140000
#03452:00140000
#04152:0034000000000000
#04156:0044003400000000
#0415a:0000004400000000
#04252:3300000000000034
#0425b:00430000
#0425a:0000000000440000
#04256:0000000000340044
#0465b:43
#04652:00330023
#04656:0000000000630000
#0605c:00126200
#06056:62
#06058:52
#06052:00120000
#06154:62
#06152:0052
#07252:54
#0725a:54
#07256:00540000
#0855b:0043000000530000
#08557:0034000000000000
#08552:0000003300000000
#08555:0000004400000000
#08757:0034000000000000
#0875b:0043000000000000
#08755:0000004400000000
#08752:0000003300630000
#08952:0000001400000000
#0895a:0000001400141400
#02652:00000016
#02658:00000016
#0435a:0044000000000000
#04356:0034004400000000
#04352:0000003400000000
#09852:16
#01257:00000063
#01252:00000033
#05257:00000063
#05252:00000033
#000390:00000000000000000000000000000000145454545454540000000000000000003400000000000000000000000000000000000000000000000000000000000000
#0003a0:0000000000000000000000000000000000000000000000000000000000000000000000540054005400540054000000000000000000000000000000000000000000000000000000000000000000000000000000000000000000000000000000000000000000000000000000000000000000000000000000000000000000000000
#000380:00000025
#000331:00000000000000000000000000000000145454545454540000000000000000003400000000000000000000000000000025000000000000000000000000000000
#000321:0000000000000000000000000000000000000000000000000000000000000000000000540054005400540054000000000000000000000000000000000000000000000000000000000000000000000000000000000000000000000000000000000000000000000000000000000000000000000000000000000000000000000000
#001351:0013
#001321:00000022
#001380:0013
#0013c0:00000022
#003320:1222000000000000
#0033c0:0000122200000000
#004320:12230000
#004360:0052000000000000
#0043c1:12
#004381:0052000000000000
#0043b1:00230000
#004321:0013
#004381:00000023
#0043b0:0013
#004350:00000023
#005370:00130000
#0053b0:0000002300000000
#005350:0013
#0053b0:00000023
#005381:0013
#005321:00000023
#006361:00130000
#006321:0000002300000000
#008381:0000000013230000
#008361:00000013
#009321:23
#009380:1323000000000000
#0093b0:00130000
#009370:0023
#009341:0000000013230000
#009321:00000013
#010371:23
#0103b1:00130000
#010371:0023
#010321:00000013
#010361:0000000000000053
#011321:23
#0113b1:00132300
#011371:0000005300000000
#012371:00000013
#0133b1:23
#013350:1323000000000000
#013320:00130000
#013360:0023
#013391:0000000013230000
#0133b1:00000013
#014361:23
#014321:00130000
#014361:0023
#0143b1:00000013
#014371:0000000000000053
#0153b1:23
#015321:00132300
#015361:0000005300000000
#018371:0013
#0183b1:0000000000530023
#018320:0000000000000014
#019360:0024000000000000
#019370:0013
#0193b0:0000000000532300
#019321:0014
#019361:0000000000542400
#019361:0000000000000013
#020321:5323000000000000
#0193a0:0000000000000014
#020360:5424000000000000
#021320:13
#021360:0034240000000000
#0213b1:13
#021361:000000000000000000000000000000000000000000000054000000000000000000000000000000000000000000000024000000000000000000000000000000000000000000000000000000000000000000000000000000000000000000000000000000000000000000000000000000000000000000000000000000000000000000000000000000000000000000000000000000000000000000000000000000000000000000000000000000000000000000000000000000000000000000000000
#021320:0013
#021360:0000000000530023
#0213b1:0000000000000013
#022371:53
#0223b1:0023000000000000
#0223b1:0013
#022371:0000000000530023
#022320:0000000000000013
#023360:53
#023320:0023000000000000
#0233b1:0013000000000000
#023371:0000002300000000
#0233b1:0000000000000013
#024381:53230000
#024321:0000000000120000
#024371:0000000000000032
#025371:3222000000000000
#0253c1:0000001200000000
#025371:0000000000323222
#0273b1:0013
#027371:0000000000230000
#027321:00000013
#027361:0000000000000023
#028351:0000000000130000
#028391:00000033
#028371:0000000000000033
#0293b1:33
#029391:0023000000000000
#029381:0000001300000000
#029341:0000000033000023
#029361:0000000000330000
#029321:00000033
#030321:0014
#030371:00000024
#0303b0:00001323
#0313a0:14
#031350:00240000
#031321:13230000
#0313b1:0013
#032331:24
#031320:0013
#032390:24
#032320:00001333
#032360:0000000000530053
#033320:33
#033360:00240000
#033371:13
#0333a1:00240000
#0333b1:00001333
#033371:0000000000530053
#0343b1:33
#034361:00240000
#034360:13
#034320:00240000
#0343b0:0000000013230000
#034320:0000000000001323
#035320:0013
#035360:0000000000532300
#0353b1:00000013
#035371:0000000000000053
#036371:23
#036320:13240000
#036360:0053000000000000
#036320:00000000000000000000000000000000000000000000000000000000000000001353535353535300000000000000000033000000000000000000000000000000
#036330:0000000000000000000000000000000000000000000000000000000000000000000000000000000000000000000000000000000000000000000000000000000000000053005300530053005300000000000000000000000000000000000000000000000000000000000000000000000000000000000000000000000000000000
#037320:33
#037380:00240000
#0363b1:00000000000000000000000000000000000000000000000000000000000000001353535353535300000000000000000033000000000000000000000000000000
#0363a1:0000000000000000000000000000000000000000000000000000000000000000000000000000000000000000000000000000000000000000000000000000000000000053005300530053005300000000000000000000000000000000000000000000000000000000000000000000000000000000000000000000000000000000
#0373b1:33
#037341:00240000
#037351:00001333
#037321:0000000000530053
#038381:33
#038321:00240000
#037380:00001333
#0373b0:0000000000530053
#038350:33
#0383a0:00240000
#038370:0000000000130000
#0383b0:0000000000000023
#039320:0000001300230000
#039360:0054
#041320:0000000000130000
#041340:00000033
#041360:0000000000000023
#0433b0:0000000000130000
#043390:00000033
#043370:0000000000000023
#0453b0:0000000000130000
#045390:00000033
#045370:0000000000000023
#046360:0000000000130023
#046320:00000053
#048370:0013
#0483b0:0000000000230000
#048360:00000013
#049320:23
#0493b1:13
#049371:0023000000000000
#0493b1:00130000
#049371:0023
#049320:0013
#049350:0000000000230000
#049320:00000013
#050360:23
#0503b0:00130000
#050370:0023
#050320:00000013
#050360:0000000000000053
#051320:23
#0513b0:00132300
#051370:0000005300000000
#0523b0:0000000013230000
#052370:00000013
#0533b0:23
#053321:13
#053361:0023000000000000
#053321:00130000
#053361:0023
#0533b0:0013
#053380:0000000000230000
#0533b0:00000013
#054370:23
#054320:00130000
#054360:0023
#0543b0:00000013
#054370:0000000000000053
#0553b0:23
#055320:00132300
#055360:0000005300000000
#056320:0012
#056370:00000032
#057370:00220000
#0573a1:12
#057341:00322200
#0573c0:0012
#057370:00000032
#058370:00220000
#058341:12
#0583a1:00322200
#058320:0012
#058360:00000032
#059360:22
#0593c1:12
#059381:00322200
#059320:0012
#059360:00000032
#060360:32
#060320:00220000
#0593c1:00000012
#060381:32
#0603c1:00220000
#0603c1:0012
#060371:00000032
#061371:00220000
#061340:12
#0613a0:00322200
#061321:0012
#061371:00000032
#062371:00220000
#0623a0:12
#062340:00322200
#0623c1:0012
#062381:00000032
#063381:32323232
#063361:0052000000000000
#0633a1:0000005200000000
#0633c1:0000000000000052
#064381:32
#0643b1:00230000
#062320:00000012
#063360:32323232
#063340:0052000000000000
#063380:0000005200000000
#063320:0000000000520000
#064360:32
#064320:00230000
#0643b0:00001323
#064370:0000000000330000
#064321:00000013
#064361:0000000000000033
#065321:23
#065371:0000001300000000
#0653b1:0000000000230000
#065361:00000013
#066321:0023000000000000
#066361:0000000000130000
#066321:0000000000000023
#067321:13
#067351:0023000000000000
#0673b1:00130000
#067381:0000002300000000
#067321:00000013
#067361:0000000000000053
#068361:33
#068321:0053230000000000
#067370:00000013
#0673b0:0000000000000053
#0683b0:33
#068370:0053230000000000
#0693b0:13
#069380:0022000000000000
#069320:00130000
#069360:0000002200000000
#070320:13
#070360:0022000000000000
#0703b0:00130000
#070380:0000002200000000
#071370:0000001300000000
#0713b0:0000000000230000
#071321:0000001300000000
#071361:0000000000230000
#072321:1400005424000000
#072361:0054340000000000
#0723a0:14
#072360:000000000000000000000000000000000000000000000000000000000000000000000000000000000000000000000000000000000000000000000000000000000000000000000000000000000000000000000000000000000000000000000000000000000000000000000000000000000000000000000000000000000000000000000000000000000000000000000000000000000000000000000000000000000000000000000000000000000000000000000000000000000000000000000000000000000000000000000000000000000000000000000000000000000000000000000000000000000000000000000000005400000000000000000000000000000000000000000000000000000000000000000000000000000000000000000000000000000000000000000000000000000000000000000000000000000000000000000000000000000000000000000000000000000000000000000000000000000000000000000000000000000000000000000000000000000000000000000000000000000000000000000000000000000000000000000000000000000000000000000000000000000000000000000000000000000000000000000000000000000000000000000000000000000000000000000000000000000000000000000024000000000000000000000000000000000000000000000000000000000000000000000000000000000000000000000000000000000000000000000000000000000000000000000000000000000000000000000000000000000000000000000000000000000000000000000000000000000000000000000000000000000000000000000000000000000000000000000000000000000000000000000000000000000000000000000000000000000000000000000000000000000000000000000000000000000000000000000000000000000000000000000000000000000000000000000000000000000000000000000000000000000000000000000000000000000000000000000000000000000000000000000000000000000000000000000000000000000000000000000000000000000000000000000000000000000000000000000000000000000000000000000000000000000000000000000000000000000000000000000000000000000000000000000000000000000000000000000000000000000000000000000000000000000000000000000000000000000000000000000000000000000000000000000000000000000000000000000000000000000000000000000000000000000000000000000000000000000000000000000000000000000000000000000000000000000000000000000000000000000000000000000000000000000000000000000000000000000000000000000000000000000000000000000000000000000000000000000000000000000000000000000000000000000000000000000000000000000000000000000000000000000000000000000000000000000000000000000000000000000000000000000000000000000000000000000000000000000000000000000000000000000000000000000000000000000000000000000000000000000000000000000000000000000000000000000000000000000000000000000000000000000000000000000000000000000000000000000000000000000000000000000000000000000000000000000000000000000000000000000000000000000000000000000000000000000000000000000000000000000000000000000000000000000000000000000000000000000000000000000000000000000000000000000000000000000000000000000000000000000000000000000000000000000000000000000000000000000000000000000000000000000000000000000000000000000000000000000000000000000000000000000000000000000000000000000000000000000000000000000000000000000000000000000000000000000000000000000000000000000000000000000000000000000000000000000000000000000000000000000000000000000000000000000000000000000000000000000000000000000000000000000000000000000000000000000000000000000000000000000000000000000000000000000000000000000000000000000000000000000000000000000000000000000000000000000000000000000000000000000000000000000000000000000000000000000000000000000000000000000000000000000000000000000000000000000000000000000000000000000000000000000000000000000000000000000000000000000000000000000000000000000000000000000000000000000000000000000000000000000000000000000000000000000000000000000000000000000000000000000000000000000000000000000000000000000000000000000000000000000000000000000000000000000000000000000000000000000000000000000000000000000000000000000000000000000000000000000000000000000000000000000000000000000000000000000000000000000000000000000000000000000000000000000000000000000000000000000000000000000000
#074321:00001333
#074361:0000000000530000
#074371:0000000000000053
#075321:23
#0753b1:00001333
#075371:0000000000530000
#075361:0000000000000053
#0763b1:23
#076321:0013
#076361:0000000000532300
#0763b0:00000013
#076370:0000000000000053
#077370:23
#077320:0013
#077350:0000000000230000
#0773b0:00000013
#077380:0000000000000023
#078320:00001333
#078350:0000000000530000
#078380:0000000000000053
#079320:23
#0783b1:00001333
#078381:0000000000530000
#078351:0000000000000053
#0793b1:23
#079381:0013
#0793b1:0000000000530053
#079351:00000033
#080381:23
#079350:0013
#079320:0000000000530053
#079380:00000033
#080350:23
#080370:0000000000130000
#0803b0:0000000000000023
#081320:0000001300230000
#081360:0054
#083320:0000000000130000
#083360:0000000000003323
#0853b0:0000000000130000
#085370:0000000000003323
#087320:0000000000130000
#087360:0000000000003323
#088370:0000000000130023
#0883b0:00000053
#090320:16260000
#090381:16260000
#0903b2:0000001300000000000000000000000000000000000000000000000000000000000000000000000000000000000000000000000000000000000000000000000000000000000000000000000000000000000000000000000000000000000000000000000000000000000000000000000000000000000000000000000000000000
#090382:0000000000000000000000230000000000000000000000000000000000000000000000000000000000000000000000000000000000000000000000000000000000000000000000000000000000000000000000000000000000000000000000000000000000000000000000000000000000000000000000000000000000000000
#090353:0000001300000000000000000000000000000000000000000000000000000000000000000000000000000000000000000000000000000000000000000000000000000000000000000000000000000000000000000000000000000000000000000000000000000000000000000000000000000000000000000000000000000000
#090323:000000000000000000000000000000000000000000000000000000000000000000000000000000000000000000000000000000000000000000000000000000000000000000000000000000000000000000000000000000000000000000000000000000000000000000000000000000000000000000000000000000000000000000000000000000000000000000000000000000000000000000000000000000000000000000000000000000000000000000000000000000000000000000000000000000000000000000000000000000000000000000000000000000000000000000000000000000000000000000000023000000000000000000000000000000000000000000000000000000000000000000000000000000000000000000000000000000000000000000000000000000000000000000000000000000000000000000000000000000000000000000000000000000000000000000000000000000000000000000000000000000000000000000000000000000000000000000000000000000000000000000000000000000000000000000000000000000000000000000000000000000000000000000000000000000000000000000000000000000000000000000000000000000000000000000000000000000000000000000000000000000000000000000000000000000000000000000000000000000000000000000000000000000000000000000000000000000000000000000000000000000000000000000000000000000000000000000000000000000000000000000000000000000000000000000000000000000000000000000000000000000000000000000000000000000000000000000000000000000000000000000000000000000000000000000000000000000000000000000000000000000000000000000000000000000000000000000000000000000000000000000000000000000000000000000000000000000000000000000000000000000000000000000000000000000000000000000000000000000000000000000000000000000000000000000000000000000000000000000000000000000000000000000000000000000000000000000000000000000000000000000000000000000000000000000000000000000000000000000000000000000000000000000000000000000000000000000000000000000000000000000000000000000000000000000000000000000000000000000000000000000000000000000000000000000000000000000000000000000000000000000000000000000000000000000000000000000000000000000000000000000000000000000000000000000000000000000000000000000000000000000000000000000000000000000000000000000000000000000000000000000000000000000000000000000000000000000000000000000000000000000000000000000000000000000000000000000000000000000000000000000000000000000000000000000000000000000000000000000000000000000000000000000000000000000000000000000000000000000000000000000000000000000000000000000000000000000000000000000000000000000000000000000000000000000000000000000000000000000000000000000000000000000000000000000000000000000000000000000000000000000000000000000000000000000000000000000000000000000000000000000000000000000000000000000000000000000000000000000000000000000000000000000000000000000000000000000000000000000000000000000000000000000000000000000000000000000000000000000000000000000000000000000000000000000000000000000000000000000000000000000000000000000000000000000000000000000000000000000000000000000000000000000000000000000000000000000000000000000000000000000000000000000000000000000000000000000000000000000000000000000000000000000000000000000000000000000000000000000000000000000000000000000000000000000000000000000000000000000000000000000000000000000000000000000000000000000000000000000000000000000000000000000000000000000000000000000000000000000000000000000000000000000000000000000000000000000000000000000000000000000000000000000000000000000000000000000000000000000000000000000000000000000000000000000000000000000000000000000000000000000000000000000000000000000000000000000000000000000000000000000000000000000000000000000000000000000000000000000000000000000000000000000000000000000000000000000000000000000000000000000000000000000000000000000000000000000000000000000000000000000000000000000000000000000000000000000000000000000000000000000000000000000000000000000000000000000000000000000000000000000000000000000000000000000000000000000000000000000000000000000000000000000000000000000000000000000000000000000000000
#090384:0000001300000000000000000000000000000000000000000000000000000000000000000000000000000000000000000000000000000000000000000000000000000000000000000000000000000000000000000000000000000000000000000000000000000000000000000000000000000000000000000000000000000000
#0903b4:000000000000000000000000000000000000000000000000000000000000000000000000000000000000000000000000000000000000000000000000000000000000000000000000000000000000000000000000000000000000000000000000000000000000000000000000000000000000000000000000000000000000000000000000000000000000000000000000000000000000000000000000000000000000000000000000000000000000000000000000000000000000000000000000000000000000000000000000000000000000000000000000000000000000000000000000000000000000000000000023000000000000000000000000000000000000000000000000000000000000000000000000000000000000000000000000000000000000000000000000000000000000000000000000000000000000000000000000000000000000000000000000000000000000000000000000000000000000000000000000000000000000000000000000000000000000000000000000000000000000000000000000000000000000000000000000000000000000000000000000000000000000000000000000000000000000000000000000000000000000000000000000000000000000000000000000000000000000000000000000000000000000000000000000000000000000000000000000000000000000000000000000000000000000000000000000000000000000000000000000000000000000000000000000000000000000000000000000000000000000000000000000000000000000000000000000000000000000000000000000000000000000000000000000000000000000000000000000000000000000000000000000000000000000000000000000000000000000000000000000000000000000000000000000000000000000000000000000000000000000000000000000000000000000000000000000000000000000000000000000000000000000000000000000000000000000000000000000000000000000000000000000000000000000000000000000000000000000000000000000000000000000000000000000000000000000000000000000000000000000000000000000000000000000000000000000000000000000000000000000000000000000000000000000000000000000000000000000000000000000000000000000000000000000000000000000000000000000000000000000000000000000000000000000000000000000000000000000000000000000000000000000000000000000000000000000000000000000000000000000000000000000000000000000000000000000000000000000000000000000000000000000000000000000000000000000000000000000000000000000000000000000000000000000000000000000000000000000000000000000000000000000000000000000000000000000000000000000000000000000000000000000000000000000000000000000000000000000000000000000000000000000000000000000000000000000000000000000000000000000000000000000000000000000000000000000000000000000000000000000000000000000000000000000000000000000000000000000000000000000000000000000000000000000000000000000000000000000000000000000000000000000000000000000000000000000000000000000000000000000000000000000000000000000000000000000000000000000000000000000000000000000000000000000000000000000000000000000000000000000000000000000000000000000000000000000000000000000000000000000000000000000000000000000000000000000000000000000000000000000000000000000000000000000000000000000000000000000000000000000000000000000000000000000000000000000000000000000000000000000000000000000000000000000000000000000000000000000000000000000000000000000000000000000000000000000000000000000000000000000000000000000000000000000000000000000000000000000000000000000000000000000000000000000000000000000000000000000000000000000000000000000000000000000000000000000000000000000000000000000000000000000000000000000000000000000000000000000000000000000000000000000000000000000000000000000000000000000000000000000000000000000000000000000000000000000000000000000000000000000000000000000000000000000000000000000000000000000000000000000000000000000000000000000000000000000000000000000000000000000000000000000000000000000000000000000000000000000000000000000000000000000000000000000000000000000000000000000000000000000000000000000000000000000000000000000000000000000000000000000000000000000000000000000000000000000000000000000000000000000000000000000000000000000000000000000000000000000000000000000000000000000000000000000000000000000000000000000000000000000
#090323:000000000000000000000000000000000000000000000000000000000000000000000000000000000000000000000000000000000000000000000000000000000000000000000000000000000000000000000000000000000000000000000000000000000000000000000000000000000000000000000000000000000000000000000000000000000000000000000000000000000000000000000000000000000000000000000000000000000000000000000000000000000000000000000000000000000000000000000000000000000000000000000000000000000000000000000000000000000000000000000000001300000000000000000000000000000000000000000000000000000000000000000000000000000000000000000000000000000000000000000000000000000000000000000000000000000000000000000000000000000000000000000000000000000000000000000000000000000000000000000000000000000000000000000000000000000000000000000000000000000000000000000000000000000000000000000000000000000000000000000000000000000000000000000000000000000000000000000000000000000000000000000000000000000000000000000000000000000000000000000000000000000000000000000000000000000000000000000000000000000000000000000000000000000000000000000000000000000000000000000000000000000000000000000000000000000000000000000000000000000000000000000000000000000000000000000000000000000000000000000000000000000000000000000000000000000000000000000000000000000000000000000000000000000000000000000000000000000000000000000000000000000000000000000000000000000000000000000000000000000000000000000000000000000000000000000000000000000000000000000000000000000000000000000000000000000000000000000000000000000000000000000000000000000000000000000000000000000000000000000000000000000000000000000000000000000000000000000000000000000000000000000000000000000000000000000000000000000000000000000000000000000000000000000000000000000000000000000000000000000000000000000000000000000000000000000000000000000000000000000000000000000000000000000000000000000000000000000000000000000000000000000000000000000000000000000000000000000000000000000000000000000000000000000000000000000000000000000000000000000000000000000000000000000000000000000000000000000000000000000000000000000000000000000000000000000000000000000000000000000000000000000000000000000000000000000000000000000000000000000000000000000000000000000000000000000000000000000000000000000000000000000000000000000000000000000000000000000000000000000000000000000000000000000000000000000000000000000000000000000000000000000000000000000000000000000000000000000000000000000000000000000000000000000000000000000000000000000000000000000000000000000000000000000000000000000000000000000000000000000000000000000000000000000000000000000000000000000000000000000000000000000000000000000000000000000000000000000000000000000000000000000000000000000000000000000000000000000000000000000000000000000000000000000000000000000000000000000000000000000000000000000000000000000000000000000000000000000000000000000000000000000000000000000000000000000000000000000000000000000000000000000000000000000000000000000000000000000000000000000000000000000000000000000000000000000000000000000000000000000000000000000000000000000000000000000000000000000000000000000000000000000000000000000000000000000000000000000000000000000000000000000000000000000000000000000000000000000000000000000000000000000000000000000000000000000000000000000000000000000000000000000000000000000000000000000000000000000000000000000000000000000000000000000000000000000000000000000000000000000000000000000000000000000000000000000000000000000000000000000000000000000000000000000000000000000000000000000000000000000000000000000000000000000000000000000000000000000000000000000000000000000000000000000000000000000000000000000000000000000000000000000000000000000000000000000000000000000000000000000000000000000000000000000000000000000000000000000000000000000000000000000000000000000000000000000000000000000000000000000000000000000000000000000000000000000000000000000000000000000000
#090353:0000000000000000000000000000000000000000000000000000000000230000000000000000000000000000000000000000000000000000000000000000000000000000000000000000000000000000000000000000000000000000000000000000000000000000000000000000000000000000000000000000000000000000
#0903b4:000000000000000000000000000000000000000000000000000000000000000000000000000000000000000000000000000000000000000000000000000000000000000000000000000000000000000000000000000000000000000000000000000000000000000000000000000000000000000000000000000000000000000000000000000000000000000000000000000000000000000000000000000000000000000000000000000000000000000000000000000000000000000000000000000000000000000000000000000000000000000000000000000000000000000000000000000000000000000000000000001300000000000000000000000000000000000000000000000000000000000000000000000000000000000000000000000000000000000000000000000000000000000000000000000000000000000000000000000000000000000000000000000000000000000000000000000000000000000000000000000000000000000000000000000000000000000000000000000000000000000000000000000000000000000000000000000000000000000000000000000000000000000000000000000000000000000000000000000000000000000000000000000000000000000000000000000000000000000000000000000000000000000000000000000000000000000000000000000000000000000000000000000000000000000000000000000000000000000000000000000000000000000000000000000000000000000000000000000000000000000000000000000000000000000000000000000000000000000000000000000000000000000000000000000000000000000000000000000000000000000000000000000000000000000000000000000000000000000000000000000000000000000000000000000000000000000000000000000000000000000000000000000000000000000000000000000000000000000000000000000000000000000000000000000000000000000000000000000000000000000000000000000000000000000000000000000000000000000000000000000000000000000000000000000000000000000000000000000000000000000000000000000000000000000000000000000000000000000000000000000000000000000000000000000000000000000000000000000000000000000000000000000000000000000000000000000000000000000000000000000000000000000000000000000000000000000000000000000000000000000000000000000000000000000000000000000000000000000000000000000000000000000000000000000000000000000000000000000000000000000000000000000000000000000000000000000000000000000000000000000000000000000000000000000000000000000000000000000000000000000000000000000000000000000000000000000000000000000000000000000000000000000000000000000000000000000000000000000000000000000000000000000000000000000000000000000000000000000000000000000000000000000000000000000000000000000000000000000000000000000000000000000000000000000000000000000000000000000000000000000000000000000000000000000000000000000000000000000000000000000000000000000000000000000000000000000000000000000000000000000000000000000000000000000000000000000000000000000000000000000000000000000000000000000000000000000000000000000000000000000000000000000000000000000000000000000000000000000000000000000000000000000000000000000000000000000000000000000000000000000000000000000000000000000000000000000000000000000000000000000000000000000000000000000000000000000000000000000000000000000000000000000000000000000000000000000000000000000000000000000000000000000000000000000000000000000000000000000000000000000000000000000000000000000000000000000000000000000000000000000000000000000000000000000000000000000000000000000000000000000000000000000000000000000000000000000000000000000000000000000000000000000000000000000000000000000000000000000000000000000000000000000000000000000000000000000000000000000000000000000000000000000000000000000000000000000000000000000000000000000000000000000000000000000000000000000000000000000000000000000000000000000000000000000000000000000000000000000000000000000000000000000000000000000000000000000000000000000000000000000000000000000000000000000000000000000000000000000000000000000000000000000000000000000000000000000000000000000000000000000000000000000000000000000000000000000000000000000000000000000000000000000000000000000000000000000000000000000000000000000000000000000000000000000000000000000000000000000000000000
#090384:0000000000000000000000000000000000000000000000000000000000230000000000000000000000000000000000000000000000000000000000000000000000000000000000000000000000000000000000000000000000000000000000000000000000000000000000000000000000000000000000000000000000000000
#090371:0013
#0903b1:0000000000230000
#090361:00000013
#091321:23
#0913b0:13
#091370:0023000000000000
#0913b0:00130000
#091370:0023
#091321:0013
#091361:0000000000230000
#091321:00000013
#092371:23
#092371:00130000
#092321:0023
#092321:00000013
#092361:0000000000000053
#093321:23
#0933b1:00132300
#093371:0000005300000000
#094371:00000013
#0953b1:23
#095320:13
#095360:0023000000000000
#095320:00130000
#095360:0023
#0953b1:0013
#095371:0000000000230000
#0953b1:00000013
#096361:23
#096361:00130000
#0963b1:0023
#0963b1:00000013
#096371:0000000000000053
#0973b1:23
#097321:00132300
#097361:0000005300000000
#012920:00132300
#012960:0000005300000000
#0169b0:00132300
#016970:0000005300000000
#052920:00132300
#052960:0000005300000000
#0569b0:00132300
#056970:0000005300000000
#094920:00142400
#094960:0000005400000000
#0989a0:00142400
#098960:0000005400000000
