This file was generated by Ched 2.7.0.0.
#TITLE ""
#ARTIST ""
#DESIGNER ""
#DIFFICULTY 0
#PLAYLEVEL
#SONGID ""
#WAVE ""
#WAVEOFFSET 0
#JACKET ""
#REQUEST "ticks_per_beat 480"
#00002: 4
#BPM01: 136
#00008: 01
#TIL00: "63'837:10000, 63'838:1"
#VOLUME: ""
#HISPEED 00
#MEASUREHS 00
#00418:0014
#00514:14
#0051a:0014
#00612:14
#00618:0014
#00714:14
#0071a:0014
#00812:1414
#00810:41
#0091a:1414
#01014:1414
#01118:14
#01114:00140000
#01214:0014
#01218:00000014
#01312:14
#01318:0014
#01314:00000014
#0141a:14
#01412:0014
#01418:00000014
#01512:14
#01614:00140014
#01610:41
#01718:00140014
#01812:00140000
#0181a:00000014
#02014:0014
#0201a:00240014
#02218:14
#02214:00140000
#0221a:0014
#02212:00000014
#02618:1414
#02614:00140000
#02718:00140000
#02714:0014
#0271a:00000014
#02712:24
#02710:41
#02812:14
#02818:00140000
#02814:0014
#0281a:00000014
#02912:14140000
#0291a:00001414
#03014:14
#03013:0054000000000000
#03012:0000545454000000
#03114:00140000
#03118:0014
#03112:00000014
#0311a:14
#0321a:14
#03214:00140000
#03218:0014
#03212:00000014
#0351a:00140000
#03514:00000014
#03618:00140000
#03612:00000014
#0371a:00140014
#03812:00140014
#0431a:14
#04318:0034143400000000
#04414:00000034140034000000000000000000
#04412:14
#04518:14
#0451a:0034143400000000
#04612:0014
#04614:24000014
#0461f:0011
#04712:14
#0531a:00140000
#05314:00001414
#05312:24
#0531f:21
#05310:0041
#0541a:14
#05412:00140000
#05418:00001414
#05512:14140000
#0551a:00001414
#05614:14
#05618:0014000000000000
#05712:00140000
#05718:00001414
#0571a:14
#05812:14
#0581a:00140000
#05814:00001414
#0591a:14
#05912:00000000000000000000001400000000
#0011a:24
#03414:0024
#05118:2424
#05114:00240024
#05218:24
#06018:0000000024000024
#06014:00000000000000000000002400000000
#06212:24
#0621a:24
#0391a:0034343400000000
#03910:41
#04012:00000034000034000000000000000000
#04118:0034343400000000
#04214:00000034000034000000000000000000
#03310:41
#0015a:0000000000000014
#00452:14
#01258:0014000000000000
#0155a:0000000000000014
#02552:14
#03052:0014
#03454:0000000000000014
#0435a:64
#04358:00240000
#04452:64
#04454:00240000
#04558:54
#0455a:00240000
#04652:0064
#04654:64000064
#04752:64
#05258:0000001400000000
#05654:0014
#05952:00000000000000000000006400000000
#06054:14
#06058:0000000000000064
#0013a0:14000000000000003400003400002400
#003320:14
#004320:24
#011380:00000000000000001400003400003400
#012380:0024000000000000
#0153a0:00000000000000001400003400002400
#019340:14000034000034000034000034000000
#020340:24
#021320:1424
#0233a0:1424
#024340:14
#024320:00000000000000003400003400003400
#025320:24
#0333a0:14000000340000340034003400000000
#0343a0:24
#034340:00000000000000001400003400002400
#039380:14
#0393a0:0034343424000000
#040340:14
#040320:00000034000034002400000000000000
#0413a0:14
#041380:0034343424000000
#042320:14
#042340:00000034000034002400000000000000
#0433a0:1424
#043380:0034343400000000
#044320:1424
#044340:00000034540034000000000000000000
#045380:1424
#0453a0:0034343400000000
#046340:14000034
#046320:0034
#047320:34
#048340:24
#052380:14000034000024000000000000000000
#056340:00142400
#059320:00000000140000340034003400000000
#060340:24
#060380:0000000000000014
#0613a0:00000024
#030940:14
#030920:00542400
#0639d0:000000000000000000000000000000000000000000000000000000000000000000000000000000000000000000000000000000000000000000000000000000000000000000000000000000000000000000000000000000000000000000000000000000000000000000000000000000000000000000000000000000000000000000000000000000000000000000000000000000000000000000000000000000000000000000000000000000000000000000000000000000000000000000000000000000000000000000000000000000000000000000000000000000000000000000000000000000000000000000000000000000000000000000000000000000000000000000000000000000000000000000000000000000000000000000000000000000000000000000000000000000000000000000000000000000000000000000000000000000000000000000000000000000000000000000000000000000000000000000000000000000000000000000000000000000000000000000000000000000000000000000000000000000000000000000000000000000000000000000000000000000000000000000000000000000000000000000000000000000000000000000000000000000000000000000000000000000000000000000000000000000000000000000000000000000000000000000000000000000000000000000000000000000000000000000000000000000000000000000000000000000000000000000000000000000000000000000000000000000000000000000000000000000000000000000000000000000000000000000000000000000000000000000000000000000000000000000000000000000000000000000000000000000000000000000000000000000000000000000000000000000000000000000000000000000000000000000000000000000000000000000000000000000000000000000000000000000000000000000000000000000000000000000000000000000000000000000000000000000000000000000000000000000000000000000000000000000000000000000000000000000000000000000000000000000000000000000000000000000000000000000000000000000000000000000000000000000000000000000001121000000000000000000000000000000000000000000000000000000000000000000000000000000000000000000000000000000000000000000000000000000000000000000000000000000000000000000000000000000000000000000000000000000000000000000000000000000000000000000000000000000000000000000000000000000000000000000000000000000000000000000000000000000000000000000000000000000000000000000000000000000000000000000000000000000000000000000000000000000000000000000000000000000000000000000000000000000000000000000000000000000000000000000000000000000000000000000000000000000000000000000000000000000000000000000000000000000000000000000000000000000000000000000000000000000000000000000000000000000000000000000000000000000000000000000000000000000000000000000000000000000000000000000000000000000000000000000000000000000000000000000000000000000000000000000000000000000000000000000000000000000000000000000000000000000000000000000000000000000000000000000000000000000000000000000000000000000000000000000000000000000000000000000000000000000000000000000000000000000000000000000000000000000000000000000000000000000000000000000000000000000000000000000000000000000000000000000000000000000000000000000000000000000000000000000000000000000000000000000000000000000000000000000000000000000000000000000000000000000000000000000000000000000000000000000000000000000000000000000000000000000000000000000000000000000000000000000000000000000000000000000000000000000000000000000000000000000000000000000000000000000000000000000000000000000000000000000000000000000000000000000000000000000000000000000000000000000000000000000000000000000000000000000000000000000000000000000000000000000000000000000000000000000000000000000000000000000000000000000000000000000000000000000000000000000000000000000000000000000000000000000000000000000000000000000000000000000000000000000000000000000000000000000000000000000000000000000000000000000000000000000000000000000000000000000000000000000000000000000000000000000000000000000000000000000000000000000000000000000000000000000000000000000000000000000000000000000000000000000000000000000000000000000000000000000000000000000000000000000000000000000000000000000000000000000000000000000000000000000000000
