This file was generated by Ched 2.7.0.0.
#TITLE ""
#ARTIST ""
#DESIGNER ""
#DIFFICULTY 0
#PLAYLEVEL
#SONGID ""
#WAVE ""
#WAVEOFFSET 0
#JACKET ""
#REQUEST "ticks_per_beat 480"
#00002: 4
#BPM01: 170
#00008: 01
#TIL00: ""
#VOLUME: ""
#HISPEED 00
#MEASUREHS 00
#0511f:11
#05118:0012
#0511c:12
#08312:0000240000261600
#08318:0000000000162600
#0831a:00240000
#08313:24
#08319:24
#06916:0000001400140014
#0691a:00000014
#06912:00131400
#06915:13
#0691b:0013000000000000
#06818:0000000000000013
#0681a:0014
#06812:0000000000140000
#06813:24240000
#06819:24240000
#06512:00141414
#06516:0014000000140014
#0651a:1414
#06518:0000001400000000
#06618:0000001600001600
#06612:0016000000160000
#0661a:24
#06414:0000000000000014
#06412:0013130000130000
#0641b:0000130000130000
#06418:0013
#06415:0000001300000000
#06417:13
#0391b:0013000000000013
#03912:13130000
#03917:13
#04016:0000000000130000
#0401b:0000000000130000
#04012:0013130000000013
#04017:00130000
#04018:0013
#04015:0000001300000000
#03816:0014000000001300
#0381b:00000013
#03817:0013
#03812:1413
#0381a:24000000000000000000000000000000140000000000000000000000000000000000000000000000000000000000000000530000000000000000000000000000
#03814:0000000000000000000000000000000000530000000000000053000000000000
#03815:00000000000000000000000000000000000000000000000000000000000000000000000000000000000000000000000000530000000000000000000000000000
#03819:0000000000000000000000000000000000530000000000000053000000000000
#03818:00000000000000000000000000000000000000000000000000000000000000000053000000000000000000000000000000000000000000000000000000000000
#03813:00000000000000000000000000000000000000000000000000000000000000000053000000000000000000000000000000000000000000000000000000000000
#0631b:0000000000000013
#06316:0014000000000000
#06312:24130000
#0631a:14
#06218:00160000
#06212:1600000000000000000000000000000000630000000000002300000000000000
#06216:0000000016000000000000000000000023000000000000000063000000000000
#06217:0000000000000000000000000000000000630000000000002300000000000000
#0621b:0000000000000000000000000000000023000000000000000063000000000000
#06219:25000000000000000000000000000000000000000000000000000000000000000063000000000000000000000000000000630000000000000000000000000000
#06214:00000000000000000000000000000000000000000000000000000000000000000063000000000000000000000000000000630000000000000000000000000000
#0611a:00141400
#06112:14161400
#06115:0016001600000015
#06118:16
#06119:00000015
#06116:0000000000140000
#0411b:00130000
#04115:1300001300000000
#04112:00001314
#04118:0013000000000000
#0411a:0014
#02518:00000014
#02514:00000014
#02517:12
#02515:0016
#02516:00140000
#08215:00000000000000000013000000001300
#08212:13000013
#08218:13000000000000000000130000130000
#0821b:0013
#08015:0013001313000000
#08017:00000013
#0801b:0013
#08018:13000013000000000000000000000000
#08012:13
#04612:00000016
#04614:0016
#04616:00160000
#04618:16
#07015:16000016
#07013:0016
#07017:00160000
#07012:00000023
#07019:0023
#07014:00230000
#0701b:23
#05612:0000000000160000
#05615:00131600
#05618:0013001600000000
#05617:0000000000000012
#04912:0000001400000024
#04916:1400140024000024
#0491a:0014000024000000
#04918:00000000000000000000002400000000
#04914:00000000000000000000002400000000
#04812:2400240000000014
#04818:0000000000140000
#04814:0014
#04816:24240000
#05216:0012
#05212:12
#05012:0000001c
#0531c:12
#05312:0026
#05315:00000026
#04418:0000000000140000
#04414:0014
#0441b:0000000000000013
#04412:24240000
#04416:24240000
#0101b:1300000013000013
#01015:00001300000013000000001300000000
#01012:1313
#01018:00130000
#01010:41
#0581a:0014001400000000
#05814:0000000000000014
#05818:26001614
#05812:1614131416000000
#0581b:00130000
#01312:00000000000000000000000000000000130000000000000000000000000000000014000000140014001400140000001400000000000000000000000000000000
#01313:0000000000000000000000000000000000000000000000000000000000000000000000000000000000000000000000000000000000000000000000000000000024000000140000001400001400140014001400140014000014000000140000000000000000000000000000000000000000000000000000000000000000000000
#01314:00000000000000001300000000000000000000000000000000000000000000000000001400001400140014000014000000000000000000000000000000000000
#0131b:1313
#01316:13
#01319:0000001300002400
#01317:00130000
#04515:0013000000000000
#04518:13
#04516:00001414
#04512:0000131400000014
#0451a:0000000000140000
#0451b:00130000
#08115:0000000013000013
#08114:0013000000000000
#0811b:0013
#08118:00000000000000000000001300000000
#08112:13140000
#0811a:00140000
#08119:0013000000000000
#07918:2600000000000013
#07915:00000000000000001300001300000000
#0791b:0013
#07912:26140000
#0791a:00140000
#07815:1300000013000013
#07818:00130013
#07812:0014000000140000
#0781a:0000001400000000
#07718:0000000013000013
#07719:0013000000000000
#07712:00141300
#07715:00000000000000000000001300000000
#0771b:13
#0771a:00140000
#07714:0013000000000000
#0071a:00140000
#00715:0013000000000000
#0071b:1300000013000013
#00716:0000000013000013
#00717:00000000000000000000001300000000
#00712:00000000000000000000001300000000
#0081b:13
#00816:13
#00612:13
#00617:13000013000000000000000000000000
#0061b:0013
#00616:0000001313000000
#00614:0013000000000000
#00512:2c00140013000013
#00517:0000000013000013
#00516:00000000000000000000001300000000
#0051b:00000000000000000000001300000000
#07618:0013001313000000
#07616:00000013
#07612:0013
#07615:13000013000000000000000000000000
#0761b:13
#07319:00000000000000000000001400000000
#07314:0014
#07316:0014001400000000
#07312:1400000000000024
#0731a:0000140000000024
#07313:00000000000000000000002400000000
#07318:0024
#05512:2300000000000013
#0551b:1300000000000013
#05518:00001313
#05515:0000001300130000
#06016:0016000000160014
#06014:0000001600000000
#06018:00260026
#06012:2626
#06010:41
#05914:0000001600000016
#05916:0016000000160000
#0591f:21
#05918:26260026
#05912:2626
#04218:00000014
#04214:0000000000140000
#0421a:2400001400000000
#04212:0014000000000000
#03716:00141414
#03718:0000001400000000
#03714:0014000000000000
#03712:14
#0371a:0014
#03616:0014001400140014
#03612:1414
#0361a:00140014
#03512:1414
#03516:0014001400140014
#0351a:24140014
#03510:41
#03218:00130000
#03212:24000000000000001300001300000000
#0321b:0000000013000013
#03215:0000001300000000
#0321a:24
#03116:0014001400001400
#03118:0000000000140000
#03114:0000000000000014
#0311a:0014
#0311b:00130000
#03117:13
#03112:14
#0301b:13000000000000000000001300000000
#03012:0000001313000013
#03017:0013
#03015:26
#03318:0014000000002400
#03314:00000000000014000000001400000000
#03312:14000000240000000000000000000014
#0331a:24142400
#03317:0000000000000014
#03313:00000000000000000000000000140000
#03319:0000000000140000
#03315:00000000000000000014000000000000
#03418:00630000000000000000000000000000000000000000000000000000000000001600000000000000000000000000000000000000000000000000000000000000
#03412:0016
#03416:24
#0341c:00520000
#0341a:0062000000000000000000000000000000000000000000000000000000000000
#02818:1300001300000000
#02815:0000000013000013
#02812:24000024000024000000001300000000
#0281b:00000013000000000000000000000000
#0281a:00000000000000002400002400002400
#02715:1300000013000013
#02718:00000000000000000000001300000000
#0271a:2400000024000024
#02712:00000000000000000000002400000000
#02618:0000000013000013
#02615:00000000000000000000001300000000
#0261a:24000000000000000000002400000000
#02612:2400000024000024
#02610:41
#02415:0000001300001300
#02412:13
#0241b:13
#02418:00131300
#0211b:0013000013001300
#02117:1300000000130000
#02119:0000001300000013
#02114:0000001300000013
#02112:1300130000130000
#02116:0013000013000000
#02214:0013000000000000
#02212:1313
#02216:00000000130000000000001300000000
#02217:1300000013000013
#02219:0000001300000000
#0221b:00130000
#01916:0000000000130000
#01912:0013
#01915:0000000000000013
#01918:00000013
#02012:1300130013000013
#0201b:13000000130000001300001300000000
#02015:0000001300000000
#02018:0013000000000000
#0181b:2300130013000013
#01812:13000000130000001300001300000000
#01818:0000001300000000
#01815:0013000000000000
#01718:0000000012000013
#01716:0000000000120000
#0171a:00000012
#01714:00000012
#05716:12
#05718:22132415
#05714:0014
#05713:00000025
#05715:00230000
#05415:0000000000130013
#05418:26001313
#0541b:0000001300000000
#05412:0000001300000000
#0161b:13000000000000001300001300000000
#01618:0000001300000000
#01614:0013000000000000
#01612:1300000000000013
#01616:00131300
#01418:00001300000013000000001300000000
#01412:1300000013000013
#0141b:0013
#01415:00130000
#01512:1313
#01517:0013
#01516:00130000
#01519:0000001300000000
#0151b:13130000
#01514:0013000000000000
#01515:0000000000222200
#01212:13000000000000001300001300000000
#01215:0000001300000000
#01219:0013000000000000
#0121b:1300000000000013
#01217:00131300
#00312:0000000000000014
#00316:00000000000000000000001400000000
#0031a:0014
#00314:00140000
#0031b:13
#00318:0013000000000000
#00218:0000001400000000
#00218:0000001300000000
#00214:0014
#00219:0013000000000000
#00215:00000014000000000000000000000000
#00212:14
#07515:0000000000000013
#07518:26000000000000001300001300000000
#07512:26141300
#0751a:00140000
#07510:41
#07216:0000000000000014
#07212:2600260000260000
#07218:26262600
#02312:13001313
#02315:0000000000000013
#0231b:13131300
#02317:00000013
#02319:0000000000130000
#02318:0000001300000000
#02316:00130000
#02314:0013000000000000
#0111b:1313
#01116:0013
#01117:00130000
#01114:0000001300000000
#01112:13130000
#01119:0013000000222200
#00412:0000001300000000
#00415:0013000000000000
#0011a:1400000000000014
#00116:00000000000000000000001400000000
#00112:1414
#00118:00140000
#00918:2600160000260013
#00912:16260026
#02915:00260000
#02916:0024
#02917:00000022
#02914:28
#07112:26262626
#07118:26262626
#04716:24242424
#0471a:00002424
#04712:24240000
#04710:41
#04316:24242424
#0431a:00002424
#04312:24240000
#06713:24242424
#06719:24242424
#00016:00000022
#00018:0000000000000022
#06152:00005434
#06159:00000065
#06156:0000000000240000
#06155:0000000000000025
#0615a:0044
#05156:14
#05158:0052
#0515c:62
#06052:56365636
#06058:46664600
#06056:0026000000260000
#06054:0000002600000000
#05952:56365636
#05958:46664666
#05954:0000002600000026
#05956:0026000000260000
#03552:54345434
#0355a:44644464
#03556:0024002400240024
#03652:54345434
#0365a:44644400
#03656:0024002400240000
#0345c:00000012
#03452:00006612
#0345a:0052000000000000000000000000000000000000000000000000000000000000
#03458:0056
#03752:00000014
#03756:00006454
#0375a:0014
#01754:00180000
#07558:46000000000000000000005300000000
#07552:36145300
#0755a:00140000
#06352:34
#0635b:0000000000000063
#06356:0024000000000000
#0635a:64
#06259:45
#06252:56
#06256:0026000000000000
#07252:3600460000160000
#07258:36461600
#04956:0000000000000014
#04954:00000000000000000000001400000000
#0495a:0014
#04952:0000000000000064
#05352:0016
#05355:00000016
#0535c:62
#07152:36463646
#07158:36463646
#04852:14
#04856:00140000
#04858:0000000000140000
#04854:0014
#04756:00141400
#0475a:00000014
#04752:14
#04452:14
#04456:00140000
#04458:0000000000140000
#04454:0014
#04356:00141400
#0435a:00000014
#04352:14
#00552:1c140000
#01353:0000000000000000000000000000000000000000000000000000000000000000000000000000000000000000000000000000000000000000000000000000000064000000640000006400006400640064006400640064000064000000640000000000000000000000000000000000000000000000000000000000000000000000
#01352:00000000000000000000000000000000000000000000000000000000000000000024000000240024002400240000002400000000000000000000000000000000
#01354:00000000000000000000000000000000000000000000000000000000000000000000002400002400240024000024000000000000000000000000000000000000
#07952:36140000
#07958:46
#07955:00000000000000000000006300000000
#0795b:0063
#0795a:00140000
#07353:00000000000000000000001400000000
#07352:0000000000000054
#0735a:0000000000000014
#07358:0014
#0835a:00440000
#08353:34
#08352:0000340000360000
#08358:00000046
#08359:44
#06853:34440000
#06859:34440000
#0685a:0014
#06852:0000000000140000
#06753:34443444
#06759:34443444
#0385a:14
#03856:0024000000000000
#03852:54
#03252:14000000000000000000005300000000
#0325a:14
#0325b:0063
#03055:16
#0305b:63000000000000000000006300000000
#03052:0053
#0285a:00000000000000001400001400001400
#02852:14000014000014000000000000000000
#0275a:1400000014000014
#02752:00000000000000000000001400000000
#0265a:14000000000000000000001400000000
#02652:1400000014000014
#05552:1300000000000053
#0555b:63
#05458:16
#00952:00360036
#00958:4600000000460000
#0185b:1363
#01852:00000000000000000000005300000000
#02954:18
#06552:00000054
#06556:0000000000240024
#0655a:0064
#06658:0000001600001600
#06652:0016000000160000
#0645b:0000000000130000
#06457:23
#0395b:0023000000000063
#03957:53
#0405b:0000000000130000
#02558:00000054
#02554:00000064
#02557:12
#02555:0016
#02556:00140000
#04652:00000016
#04654:0016
#04656:00160000
#04658:16
#07055:16000016
#07053:0016
#07057:00160000
#05256:0062
#05252:52
#05052:0000006c
#08252:53
#08155:0063
#08158:00000000000000000000005300000000
#08152:00140000
#0815a:00140000
#08057:00000023
#0805b:0063
#08058:00000053000000000000000000000000
#07758:0053
#07755:00000000000000000000006300000000
#0775a:00140000
#07752:00140000
#07852:0014000000140000
#0785a:0000001400000000
#0075a:00140000
#0085b:63
#00856:63
#00657:00000053000000000000000000000000
#00656:0063
#07656:00000023
#07652:0053
#07655:00000063000000000000000000000000
#04258:00000014
#04254:0000000000140000
#0425a:0000001400000000
#04252:0014000000000000
#0215b:0023000000000000
#02157:53
#02152:0000000000230000
#02156:0063
#02256:00000000000000000000006300000000
#02257:0053
#01956:0000000000230000
#01952:0053
#0205b:00000000000000000000006300000000
#02052:0053
#05858:0016
#05852:0016
#0165b:00000000000000000000006300000000
#01656:0063
#01458:00000000000000000000005300000000
#01452:0063
#01252:00000000000000000000005300000000
#01257:0053
#01055:00000000000000000000006300000000
#0105b:0053
#00254:0064
#04152:00000054
#0415a:0064
#03156:0024000000000000
#03152:54
#02455:00000063
#02452:53
#02458:0053
#0015a:14
#00152:14
#002340:0014
#003320:23
#0043b0:1323000000000000
#004380:0000132300000000
#004350:00000000000000001636363600000000
#004360:00000000000000000000000000000000000000000000000000000000000000000054005400540054005400540054005400000000000000000000000000000000
#004320:0000000000000000000000000000000000000000000000000000000000000000000000000000000000000000000000003c3a003a003a003a003a003a003a003a
#004340:000000000000000000000000000000000000000000000000003a3a3a3a3a3a3a
#005320:2c
#006370:00000013000000000000000000000000
#0063b0:0000002300000000
#006360:0013
#007320:23
#0083b0:13
#008370:00000023
#008361:13
#008321:00000023
#0103b1:0013
#010381:00000000000000000000002300000000
#010350:00000000000000000000001300000000
#010320:0000000000000023
#012370:0013
#0123b0:00000000000000000000002300000000
#012321:00000000000000000000001300000000
#012361:0000000000000023
#013331:0000000000000000000000000000000000000000000000000000000000000000000000000000000000000000000000000000000000000000000000000000000014000000540000005400005400540054005400540054000054000000540000002400000000000000000000000000000000000000000000000000000000000000
#013321:00000000000000000000000000000000000000000000000000000000000000000054000000540054005400540000005400000000000000000000000000000000
#013341:00000000000000000000000000000000000000000000000000000000000000000000005400005400540054000054000000000000000000000000000000000000
#013390:00000014
#013380:000000000000000000000000000000000000000000000000000000000000000000000000000000000000000000000000000000000000000000000000000000000000000000000000000000000000000000000000000000000000000000000000000000000000000000000000000000000000000000000000000000000000000000000000000000000000000000000000000000000000000000000000000000000000000000000000000000000000000000000000000000000000000000000000000000000000000000000000000000000000000000000000000000000000000000000000000000000000000000000000000000000000000000000000000000000000000000000000000000000000000000000000000000000000000000000000000000540000000000540000000000540000000000540000000000540000000000540000000000540000000000540000000000005400000000000000540000000000000054000000000000000000540000000000000000000000540000000000
#0133a0:000000000000000000000000000000000000000000000000000000000000000000000000000000000000000000000000000000000000000000000000000000000000000000000000000000000000000000000000000000000000000000000000000000000000000000000000000000000000000000000000000000000000000000000000000000000000000000000000000000540000540000540000540000540000540000540000540000005400000054000000540000000000540000000000
#014390:24
#014320:0013
#014350:00000000000000000000002300000000
#014381:00000000000000000000001300000000
#0143b1:0000000000000023
#016361:0013
#016321:00000000000000000000002300000000
#0163b0:00000000000000000000001300000000
#016370:0000000000000023
#017360:14
#017340:00280000
#0183b0:0013
#018370:00000000000000000000002300000000
#018321:00000000000000000000001300000000
#018361:0000000000000023
#019361:1323000000000000
#0193b0:0013230000000000
#019341:0000132300000000
#019390:0000001323000000
#019321:00001323
#019361:0000000000530000
#020321:0013
#020361:00000000000000000000002300000000
#0203b0:00000000000000000000001300000000
#020370:0000000000000023
#021370:13230000
#0213b0:0053000000000000
#021360:00001323
#021320:0000000000530000
#022370:0013
#0223b0:00000000000000000000002300000000
#022361:00000000000000000000001300000000
#022321:0000000000000023
#024321:13
#024351:00230000
#024381:0013
#0243b1:00000023
#024350:00000013
#025320:23
#025340:00000014
#026320:24
#025381:00000014
#0263a1:24
#0303b1:13
#030371:0000002300000000
#030321:0013
#030361:00000000000000000000002300000000
#0303b0:00000000000000000000001300000000
#030370:0000000000000023
#031320:14240000
#031360:0054000000000000
#0323b0:0013
#032370:00000000000000000000002300000000
#032321:00000000000000000000001300000000
#032361:0000000000000023
#034381:0016
#0343c1:00000022
#034320:00001622
#035320:14240000
#035360:0054000000000000
#0353a1:00142400
#035361:0000005400000000
#035320:00001424
#035360:0000000000540000
#0353a1:00000014
#035361:0000000000000054
#0363a1:24
#036320:14240000
#036360:0054000000000000
#0363a1:00142400
#036361:0000005400000000
#036320:00001424
#036360:0000000000540000
#037360:0014
#037320:00000024
#037361:00000014
#0383a1:24
#038320:14240000
#038360:0054000000000000
#039370:13230000
#0393b0:0053000000000000
#039370:0000001323000000
#039321:0000000013230000
#0393b0:0000000000132300
#039361:0000000000001323
#0393b0:0000000000000013
#040370:0023000000000000
#0413a0:0014
#041360:00000024
#041321:00000014
#042361:24
#049321:0000000000000014
#050361:00000000000000000000000000000000340054005400540054005400540054000054005400540054005400540054005400000000000000000000000000000000
#050351:00000000000000000000000000000000005900000059000000590000005900000000000000000000000000000000000000000000000000000000000000000000
#050321:00000000000000000000000000000000000000590000005900000059000000003c0000003c0000003c0000003c0000003c000000000000000000000000000000
#050341:00000000000000000000000000000000000000000000000000000000000000570000000000000000000000000000000000000000000000000000000000000000
#051361:24
#0513c0:12
#051380:0032
#0523c0:22
#052321:12
#052361:0032
#053321:22
#0533c0:12
#053380:0022
#0553b0:13
#055380:0000002300000000
#055320:0000000000000013
#056350:0023000000000000
#059320:16260000
#059360:0056000000000000
#059381:00162600
#059341:0000005600000000
#059320:00001626
#059360:0000000000560000
#059381:00000016
#059341:0000000000000056
#060381:26
#060320:16260000
#060360:0056000000000000
#060381:00162600
#060341:0000005600000000
#060320:00001626
#060360:0000000000560000
#061320:00001424
#061360:0000000000540000
#061391:00000015
#061351:0000000000000055
#062391:25
#062320:16260000
#062360:0056000000000000
#0633a0:14240000
#063360:0054000000000000
#0633b0:0000001300000000
#063380:0023
#063321:0013
#063351:0000000000230000
#063380:0000000000130000
#0633b0:00000023
#063351:00000013
#063321:0000000000000023
#0633b0:0000000000000013
#064370:53
#0643b0:0023000000000000
#0653a0:00001424
#065360:0000000000540000
#065321:00000014
#065361:0000000000000054
#066321:24
#073321:0000000000000014
#074361:0000000000000000345434543454345424000000000000000000000000000000
#074351:00000000000000000000000000000000005900000059000000590000005900000000000000000000000000000000000000000000000000000000000000000000
#074321:00000000000000000000000000000000000000590000005900000059000000000000000000000000000000000000000000000000000000000000000000000000
#074341:00000000000000000000000000000000000000000000000000000000000000570000000000000000000000000000000000000000000000000000000000000000
#0743a0:0014
#074380:00000000000000000000000000000000000000000000000000000000000000000000000054000000000000000000000034545454545454545454545454545454
#074390:0000000000000000000000000000000000000000000000000000000000000000000000000000000000000000000000000000000000000000000000000000000000000000000000000000000000000000000000000000000000000000000000000055005500550055005500550055005500550055005500550055005500550055
#075380:26
#074321:0000000000000000000000000000000000000000000000000000000000000000000000000000000000000000000000000000000000000000000000000000000000000000000000000000000000000000140000000000000000000000000000000055005500550055005500550055005500550055005500550055005500550055
#074341:00000000000000000000000000000000000000000000000000000000000000000000000000000000000000005400000034545454545454545454545454545454
#075321:26
#075321:0013
#075351:00000000000000000053002300000000
#075380:00000000000000000000001300000000
#0753b0:0000000000005323
#076350:00000013000000000000000000000000
#076320:0000532300000000
#076320:0013
#076360:00000053
#077320:23
#077380:0013
#0773b0:00000000000000000053002300000000
#077351:00000000000000000000001300000000
#077321:0000000000005323
#0793b1:0013
#079381:00000000000000000053002300000000
#079350:00000000000000000000001300000000
#079320:0000000000005323
#080380:00000013000000000000000000000000
#0803b0:0000532300000000
#0803b0:0013
#080370:00000053
#0813b0:23
#081350:0013
#081320:00000000000000000053002300000000
#081381:00000000000000000000001300000000
#0813b1:0000000000005323
#082321:13
#082351:0023
#034960:14
#0349a0:0052000000000000000000000000000000000000000000000000000000000000
#0349c0:000000000000000000000000000000000000000000000000000000000000000000000000000000000000000000000000000000000000000000000000000000000000000000000000000000000000000000000000000000000000000000000000000000000000000000000000000000000000000000000000000000000000000000000000000000000000000000000000000000000000000000000000000000000000000000000000000000000000000000000000000000000000000000000000000000000000000000000000000000000000000000000000000000000000000000000000000000000000000000000000000000000000000000000000000000000000000000000000000000000000000000000000000000000000000000000000000000000000000000000000000000000000000000000000000000000000000000000000000000000000000000000000000000000000000000000000000000000000000000000000000000000000000000000000000000000000000000000000000000000000000000000000000000000000000000000000000000000000000000000000000000000000000000000000000000000000000000000000000000000000000000000000000000000000000000000000000000000000005252525252220000000000000000000000000000000000000000000000000000000000000000000000000000000000000000000000000000000000000000000000000000000000000000000000000000000000000000000000000000000000000000000000000000000000000000000000000000000000000000000000000000000000000000000000000000000000000000000000000000000000000000000000000000000000000000000000000000000000000000000000000000000000000000000000000000000000000000000000000000000000000000000000000000000000000000000000000000000000000000000000000000000000000000000000000000000000000000000000000000000000000000000000000000000000000000000000000000000000000000000000000000000000000000000000000000000000000000000000000000000000000000000000000000000000000000000000000000000000000000000000000000000000000000000000000000000000000000000000000000000000000000000000000000000000000000000000000000000000000000000000000000000000000000000000000000000000000000000000000000000000000000000000000000000000000000000000000000000000000000000000000000000000000000000000000000000000000000000000000000000000000000000000000000000000000000000000000000000000000000000000000000000000000000000000000000000000000000000000000000000000000000000000000000000000000000000000000000000000000000000000000000000000000000000000000000000000000000000000000000000000000000000000000000000000000000000000000000000000000000000000000000000000000000000000000000000000000000000000000000000000000000000000000000000000000000000000000000000000000000000000000000000000000000000000000000000000000000000000000000000000000000000000000000000000000000000000000000000000000000000000000000000000000000000000000000000000000000000000000000000000000000000000000000000000000000000000000000000000000000000000000000000000000000000000000000000000000000000000000000000000000000000000000000000000000000000000000000000000000000000000000000000000000000000000000000000000000000000000000000000000000000000000000000000000000000000000000000000000000000000000000000000000000000000000000000000000000000000000000000000000000000000000000000000000000000000000000000000000000000000000000000000000000000000000000000000000000000000000000000000000000000000000000000000000000000000000000000000000000000000000000000000000000000000000000000000000000000000000000000000000000000000000000000000000000000000000000000000000000000000000000000000000000000000000000000000000000000000000000000000000000000000000000000000000000000000000000000000000000000000000000000000000000000000000000000000000000000000000000000000000000000000000000000000000000000000000000000000000000000000000000000000000000000000000000000000000000000000000000000000000000000000000000000000000000000000000000000000000000000000000000000000000000000000000000000000000000000000000000000000000000000000000000000000000000000000000000000000000000000000000000000000000000000000000000000000000000000000000000000000000000000000000000000000000000000000000000000000000000000000000
#038970:0013
#038990:0000000000000000000000000000000000230000000000000000000000000000
#038921:0013
#038941:0000000000000000000000000000000000230000000000000000000000000000
#038961:00000013
#038941:0000000000000000000000000000000000000000000000000023000000000000
#0389b0:00000013
#038990:0000000000000000000000000000000000000000000000000023000000000000
#0629b0:0013
#062970:0000000000000000000000000000000000230000000000000000000000000000
#062961:0013
#062921:0000000000000000000000000000000000230000000000000000000000000000
#062921:00000013
#062961:0000000000000000000000000000000000000000000000000023000000000000
#062970:00000013
#0629b0:0000000000000000000000000000000000000000000000000023000000000000
