This file was generated by Ched 2.7.0.0.
#TITLE ""
#ARTIST ""
#DESIGNER ""
#DIFFICULTY 0
#PLAYLEVEL
#SONGID ""
#WAVE ""
#WAVEOFFSET 0
#JACKET ""
#REQUEST "ticks_per_beat 480"
#00002: 4
#BPM01: 170
#00008: 01
#TIL00: ""
#VOLUME: ""
#HISPEED 00
#MEASUREHS 00
#0101b:13131300
#01015:0013001300000000
#01018:00000000000000000000001300000000
#01010:41
#0051a:0014
#00512:00000000130000000000001400000000
#00518:0000000000000014
#0051b:00130000
#00514:28
#0821a:14
#08216:0000001400000000
#00116:00140000
#0011a:14
#00112:0014
#00113:00000000000000000000005400000000
#00114:0000000000000054
#0021b:13
#00215:00131300
#00218:0000001300000000
#00412:14
#0041a:0014000000000000
#00414:00140000
#00418:0000001400000000
#00614:14
#00618:00130000
#00615:0000001300000000
#0061b:0013
#0071b:00130000
#00712:00131400
#0071a:00000000000000000000001400000000
#00714:0000000000000014
#00715:0013000000000000
#00914:14140000
#0091a:0000000000141400
#00918:24240000
#00912:0000000000242400
#01112:13000024
#01118:0013000000000000
#01114:00130000
#0111a:0000001300240000
#01116:0013
#0181b:0000001300000000
#01812:2314
#01816:00000000000000000000001400000000
#0181a:0000000000000014
#01818:0013000000000000
#01815:00130000
#0221b:13
#02215:00130000
#02218:0013000000000000
#02212:0000001300000014
#0221a:0014
#02216:00000000000000000000001400000000
#02318:1300000000130000
#02315:0013000000001300
#0231b:00131300
#02312:0000001300000013
#0301b:0000001300000000
#03012:0014
#03015:00000000000000000000001400000000
#03018:0000000000000014
#03014:24
#0311b:0013
#03118:0000000000130000
#03115:13000013
#03112:0000000000000013
#03413:00120000
#03416:0014
#03418:00000013
#03415:0000000000000013
#0341b:00120000
#03515:0000130000000013
#03518:0000001300000000
#0351b:00000013
#03512:0013
#0351a:24
#03510:41
#03612:0000001300000000
#03618:00130000
#0361a:0000000000000014
#03714:14
#03719:0014000000000000
#03713:00140000
#03718:0000001400000000
#04212:00130000
#0421b:00130000
#04215:0000000000130000
#04218:00001313
#05912:2400000013001313
#05915:00130000
#05918:0000001300001313
#0591b:0013
#0591a:24
#0591f:21
#06015:0000131300000013
#0601b:0000131300000000
#06010:41
#0611b:13
#06118:0013000000001400
#06115:00130000
#06112:0000001300000000
#06114:00000014
#0631a:0000001400000014
#06316:00001414
#06312:0000000000140000
#06314:14
#06318:14
#06412:0000130000000014
#06415:0000001300000000
#06418:0013
#0641b:0000000000130000
#06516:14140000
#0651a:0014000000001400
#06512:0000001400001400
#06612:00130014
#0661b:00130000
#06615:0000000000130000
#06618:2413
#0661a:00000014
#06614:24
#07515:00130000
#0751b:00130000
#07512:0014
#07516:00000000000000000000001400000000
#0751a:0000000000000014
#07510:41
#07715:0013000000000000
#07718:00130000
#07712:0014
#07716:00000000000000000000001400000000
#0771a:0000000000000014
#07816:14141400
#07815:0000000000000013
#07818:00000013
#07812:0024000000240000
#0781a:0000002400000000
#02115:0000001300130000
#0211b:00130013
#02112:0013000000000013
#02118:1313
#00318:0014000000000054
#00314:00140000
#0031a:0014
#00319:00000000000000000000005400000000
#00818:14
#01218:13131300
#01212:0013001300000013
#01318:13
#01314:0013000000000000
#0131a:00130000
#01316:0000001300000000
#01412:13131300
#01418:0013001300000000
#01415:00000000000000000000001300000000
#0151b:13
#01515:0013000000000000
#01519:00130000
#01513:0000001300000000
#01517:0013
#01512:0000000000240000
#0151a:00000024
#01615:13131300
#0161b:0013001300000000
#01618:0000000000000013
#01718:0000000013000013
#01715:00000013
#01915:1300000013000013
#0191b:0013000000000000
#01912:00130000
#01918:0000001300001300
#0201b:13
#02012:0000001300000014
#0201a:0014
#02016:00000000000000000000001400000000
#02015:0013000000000000
#02018:00130000
#0241a:14
#02414:0014
#02412:00000014
#02518:00140014
#02514:0014
#03318:13003400340034000034343434343434
#0331a:0014
#0431a:0000001400002400
#04314:0000001400002400
#04318:24
#04312:24
#04412:0014000000000013
#04418:0014000000140000
#04414:0014
#04712:0000001400002400
#04718:0000001400002400
#04714:24
#0471a:24
#04710:41
#0481a:0014000000000000
#04814:0014000000140000
#04818:0014
#0481b:0000000000000013
#05812:14
#0581a:14
#05818:0034343400001300
#05815:0000000000000013
#05814:0034343400000000
#0391a:14
#03912:1400001300000013
#03915:0013
#03918:0000000000130000
#0391b:00000013
#0401b:00130000
#04018:0000001300000013
#04015:0013
#04012:0000000000130000
#04115:13
#04118:00130000
#0411b:00000013
#04112:00000013
#06712:0000001300002300
#06716:2400001400002400
#0671b:23
#0681b:0013000000000000
#06816:0014000000000000
#06814:0000000000000014
#06818:0000000000160000
#06812:0016
#0711b:0000001300002300
#07116:2400001400002400
#07112:23
#07212:0013000000260000
#07216:0014000000000000
#0721a:0000000000000014
#07218:0026
#05415:0000001300130013
#05418:00001313
#0541a:24
#05515:0000001300000013
#05518:1313
#05512:0000000000130000
#0551b:00000013
#05618:00130000
#05615:0000001300000000
#0561b:0000000013000013
#05612:0000000000130000
#07314:00140000
#07318:0014000000000000
#07316:14000000000014000000002400000000
#07312:0000000024000024
#0731a:0000000000000024
#06917:00140000
#06913:0014000000000000
#06918:14000014
#06916:0000000014000014
#06914:0000000000140000
#06912:0000001400000000
#07612:1400001300000000
#0761b:0013
#07618:0013130000000000
#07615:00000013000000000000000000000000
#07918:26130000
#07912:2600130000000014
#0791a:0014
#07916:00000000000000000000001400000000
#08118:0013000000000000
#08115:00130000
#0811a:0014
#08116:00000000000000000000001400000000
#08112:0000000000000014
#0801a:14
#08012:0013
#08015:0013130000000000
#0801b:0000001300000000
#08018:00000013000000000000000000000000
#03212:0000001300000000
#0321a:0014
#03217:00000000000000000000001400000000
#03214:0000000000000014
#03218:24
#0701a:14
#07012:00000014
#07014:00140000
#07018:0014
#0451b:1313
#04515:0013000000130000
#04518:00130013
#04512:0000001300000013
#0461a:14
#04614:00140000
#04618:0014
#04612:00000014
#04912:1324
#04918:0013000000000000
#04915:00130000
#0491b:0000001300000000
#04916:00000000000000000000002400000000
#0491a:0000000000000024
#05016:00000014
#05112:0013
#0511f:11
#05215:13
#05218:0013
#0531b:13
#05312:0024
#05316:00000024
#0381a:2400000034000034
#03812:2400000034000034
#03818:0000000000340000
#03814:0000000000340000
#05716:24242424
#0621a:24
#06212:24
#08312:24240000
#0831a:24240000
#08318:00000024
#08314:0000000000240000
#0261a:2400000000000024
#02612:0024
#02616:00000000000000000000002400000000
#02610:41
#02812:00000024000000000000000000000000
#02818:0000002400000000
#0281a:24000000000000000000002400000000
#02814:0000000024000024
#02918:24
#02912:00240000
#02916:0024
#0291a:00000024
#00018:00000024
#00014:0000000000000024
#02712:2400000000000024
#02712:2400000000000024
#0271a:0024
#0271a:0024
#02716:00000000000000000000002400000000
#02716:00000000000000000000002400000000
#0385a:14
#03852:14
#0625a:14
#06252:14
#0825a:54
#08256:0000002400000000
#01058:00000000000000000000005300000000
#0105b:0063
#02958:14
#0355a:14
#03555:0000000000000063
#03552:0013
#03652:0000005300000000
#03655:0000000000130000
#0595a:14
#05952:1400000013000053
#0595b:0013
#05958:0000000000000053
#06658:14
#06654:14
#08352:14140000
#0835a:14140000
#08358:00000014
#08354:0000000000140000
#05858:0014
#05854:0014
#05852:54
#0585a:64
#00858:54
#01358:00000016
#01258:0053
#01455:00000000000000000000006300000000
#01452:0053
#01655:0063
#0245a:64
#02454:0064
#02452:00000054
#02554:1414
#02558:00140054
#0265a:14
#02752:14
#02752:14
#0285a:14
#02854:0014
#03054:14
#03258:14
#03155:63
#03358:53
#0335a:0064
#03455:16
#04358:14
#04352:14
#0435a:0000001400001400
#04354:0000001400001400
#04452:0014000000000000
#04458:0014000000000000
#04752:0000001400001400
#04758:0000001400001400
#04754:14
#0475a:14
#0485a:0014000000000000
#04854:0014000000000000
#0605b:0000006300000000
#06055:0000006300000000
#06052:0000000000130000
#06058:0000000000130000
#0395a:64
#03952:5400000000000063
#04258:13
#04255:13
#06154:00000064
#06158:00000054
#0655a:00000064
#06552:00000054
#06752:0000001300001300
#06756:1400001400001400
#0675b:13
#0685b:0013000000000000
#06856:0014000000000000
#0715b:0000001300001300
#07156:1400001400001400
#07152:13
#07252:0013000000000000
#07256:0014000000000000
#05558:53
#05555:0000000000000063
#05352:0014
#05356:00000014
#0545a:14
#07352:0000000000000054
#0735a:0000000000000064
#07558:16
#07552:16
#0765b:0063
#07958:16
#07952:16
#08052:0053
#06354:64
#06358:54
#0635a:0000000000000064
#00554:18
#0415b:00000063
#04152:00000053
#0705a:14
#07052:00000014
#07054:00140000
#07058:0014
#0465a:14
#04654:00140000
#04658:0014
#04652:00000014
#05056:00000054
#0495a:0000000000000054
#0515b:13
#01755:00130000
#0065b:0063
#00255:0063
#002350:0013
#003320:23
#004360:0000000000000000000000000000000014003400340034003436363636363636
#004340:00000000000000000000000000000000000000000000000000000000000000000000000000000000000000000000000000360036003600360036003600360036
#005340:28
#0063b0:0013
#007380:23
#008380:14
#0083b0:00000023
#0103b0:0000000013000023
#010380:00000000000000000000003300000000
#012380:0013
#0123b0:00000000000000000000002300000000
#013380:0000000000000000000000000000000016565656565656562600000000000000
#013390:00000000000000000000000000000000000000000000000000000000000000000054005400540054005400540054005400000000000000000000000000000000
#014320:0000000013000023
#014350:00000000000000000000003300000000
#016350:0013
#016320:00000000000000000000002300000000
#017350:13230000
#0243a0:14
#024380:0000002400000000
#024340:0014
#024320:00000034
#025340:24
#025380:00000014
#0263a0:24
#031350:13
#031320:00230000
#033380:13003400340034000034343434343434
#0333a0:0034
#034350:26
#035350:0000000000000013
#036320:0023000000000000
#036320:0000001300000000
#036350:0000000000230000
#037320:0014
#038320:24
#0373a1:00000014
#0383a1:24
#038321:0000001434000034
#038341:0000000000343400
#039321:34
#039341:00240000
#0383a0:0000001434000034
#038380:0000000000343400
#0393a0:34
#039380:00240000
#039320:0000000000000013
#040350:0023000000000000
#0413b0:00001333
#042380:23
#041321:00001333
#042351:23
#0493a1:0000000000000014
#050361:0000000000000000345454545454545434003400340034003400000000000000
#050341:00000000000000000000000000000000005700000057000000570000005700000000000000000000000000000000000000000000000000000000000000000000
#050351:00000000000000000000000000000000000000570000005700000057000000570000000000000000000000000000000000000000000000000000000000000000
#0513b1:23
#055381:13
#0553b1:00230000
#055351:0000000000000013
#056321:0023000000000000
#0583a1:14
#058381:0034343424000000
#058320:14
#058340:0034343424000000
#059320:0000000000000013
#060350:0023000000000000
#059381:0000000000000013
#0603b1:0023000000000000
#0603b1:0000001300000000
#060381:0000000000230000
#060350:0000001300000000
#060320:0000000000230000
#061380:00001434
#0623a0:24
#061341:00000014
#062321:24
#062321:0000001400340034
#062341:00003434
#063341:34
#063321:00240000
#0623a0:0000001400340034
#062380:00003434
#063380:34
#0633a0:00240000
#0633a0:0000000000000014
#064360:0024000000000000
#0653a0:00001434
#066380:24
#065321:00000014
#066341:24
#0733a1:0000000000000014
#074381:000000000000000000000000000000000000000000000000000000000000000000000000000000000000000000000000340000550000540000560000340000550000540000560000340000550000540000560000340000550000540000560000340000000000000000000000000000000000000000000000000000000000000000000000000000000000000000000000340056005400560054005600540056005400560054005600540056005400560054005600540056005400560054005600
#0743a1:0000000000340000
#075381:26
#073320:0000000000000014
#074340:000000000000000000000000000000000000000000000000340000540000340000540000340000540000340000540000340000000000000000000000000000000000000000000000340054005400540054005400540054005400540054005400
#074330:00000000000000000000000000000000005500000055000000550000005500000000000000000000000000000000000000000000000000000000000000000000
#074320:000000000000000000000000000000000000000000000000000000000000000000000000000000000000000000000000000000000000000000560000000000000000000000560000000000000000000000560000000000000000000000560000000000000000000000000000000000000000000000000000340000000000000000000000000000000000000000000000000056000000560000005600000056000000560000005600000056000000560000005600000056000000560000005600
#075320:26
#0763b0:0013
#077380:23
#080320:0013
#081350:23
#0823a0:14000024
#082360:0000005400000000
#001920:0014
#001940:000000000000000000000000000000000000000000000000000000000000000000000000000000000000000000000000000000000000000000000000000000000000000000000000000000000000000000000000000000000000000000000000000000000000000000000000000000000000000000000000000000000000000000000000000000000000000000000000000000000000000000000000000000000000000000000000000000000000000000000000000000000000000000000000000000000000000000000000000000000000000000000000000000000000000000000000000000000000000000000000000000000000000000000000000000000000000000000000000000000000000000000000000000000000000000000000000000000000000000000000000000000000000000000000000000000000000000000000000000000000000000000000000000000000000000000000000000000000000000000000000000000000000000000000000000000000000000000000000000000000000000000000000000000000000000000000000000000000000000000000000000000000000000000000000000000000000000000000000000000000000000000000000000000000000000000000000000000000000000000000000000000000000000000000000000000000000000000000000000000000000000000000000000000000000000000000000000000000000000000000000000000000000000000000000000000000000000000000000000000000000000000000000000000000000000000000000000000000000000000000000000000000000000000000000000000000000000000000000000000000000000000000000000000000000000000000000000000000000000000000000000000000000000000000000000000000000000000000000000000000000000000000000000000000000000000000000000000000000000000000000000000000000000000000000000000000000000000000000000000000000000000000000000000000000000000000000000000000000000000000000000000000000000000000000000000000000000000000000000000000000000000000000000000000000000000000000000000000000000000000000000000000000000000000000000000000000000000000000000000000000000000000000000000000000000000000000000000000000000000000000000000000000000000000000000000000000000000000000000000000000000000000000000000000000000000000000000000000000000000000000000000000000000000000000000000000000000000000000000000000000000000000000000000000000000000000000000000000000000000000000000000000000000000000000000000000000000000000000000000000000000000000000000000000000000000000000000000000000000000000000000000000000000000000000000000000000000000000000000000000000000000000000000000000000000000000000000000000000000000000000000000000000000000000000000000000000000000000000000000000000000000000000000000000000000000000000000000000000000000000000000000000000000000000000000000000000000000000000000000000000000000000000000000000000000000000000000000000000000000000000000000000000000000000000000000000000000000000000000000000000000000000000000000000000000000000000000000000000000000000000000000000000000000000000000000000000000000000000000000000000000000000000000000000000000000000000000000000000000000000000000000000000000000000000000000000000000000000000000000000000000000000000000000000000000000000000000000000000000000000000000000000000000000000000000000000000000000000000000000000000000000000000000000000000000000000000000000000000000000000000000000000000000000000000000000000000000000000000000000000000000000000000000000000000000000000000000000000000000000000000000000000000000000000000000000000000000000000000000000000000000000000000000000000000000000000000000000000000000000000000000000000000000000000000000000000000000000000000000000000000000000000000000000000000000000000000000000000000000000054240000000000000000000000000000000000000000000000000000000000000000000000000000000000000000000000000000000000000000000000000000000000000000000000000000000000000000000000000000000000000000000000000000000000000000000000000000000000000000000000000000000000000000000000000000000000000000000000000000000000000000000000000000000000000000000000000000000000000000000000000000000000000000000000000000000000000000000000000000000000000000000000000000000000000000000000000000000000000000000000
#0039a0:0014
#003980:000000000000000000000000000000000000000000000000000000000000000000000000000000000000000000000000000000000000000000000000000000000000000000000000000000000000000000000000000000000000000000000000000000000000000000000000000000000000000000000000000000000000000000000000000000000000000000000000000000000000000000000000000000000000000000000000000000000000000000000000000000000000000000000000000000000000000000000000000000000000000000000000000000000000000000000000000000000000000000000000000000000000000000000000000000000000000000000000000000000000000000000000000000000000000000000000000000000000000000000000000000000000000000000000000000000000000000000000000000000000000000000000000000000000000000000000000000000000000000000000000000000000000000000000000000000000000000000000000000000000000000000000000000000000000000000000000000000000000000000000000000000000000000000000000000000000000000000000000000000000000000000000000000000000000000000000000000000000000000000000000000000000000000000000000000000000000000000000000000000000000000000000000000000000000000000000000000000000000000000000000000000000000000000000000000000000000000000000000000000000000000000000000000000000000000000000000000000000000000000000000000000000000000000000000000000000000000000000000000000000000000000000000000000000000000000000000000000000000000000000000000000000000000000000000000000000000000000000000000000000000000000000000000000000000000000000000000000000000000000000000000000000000000000000000000000000000000000000000000000000000000000000000000000000000000000000000000000000000000000000000000000000000000000000000000000000000000000000000000000000000000000000000000000000000000000000000000000000000000000000000000000000000000000000000000000000000000000000000000000000000000000000000000000000000000000000000000000000000000000000000000000000000000000000000000000000000000000000000000000000000000000000000000000000000000000000000000000000000000000000000000000000000000000000000000000000000000000000000000000000000000000000000000000000000000000000000000000000000000000000000000000000000000000000000000000000000000000000000000000000000000000000000000000000000000000000000000000000000000000000000000000000000000000000000000000000000000000000000000000000000000000000000000000000000000000000000000000000000000000000000000000000000000000000000000000000000000000000000000000000000000000000000000000000000000000000000000000000000000000000000000000000000000000000000000000000000000000000000000000000000000000000000000000000000000000000000000000000000000000000000000000000000000000000000000000000000000000000000000000000000000000000000000000000000000000000000000000000000000000000000000000000000000000000000000000000000000000000000000000000000000000000000000000000000000000000000000000000000000000000000000000000000000000000000000000000000000000000000000000000000000000000000000000000000000000000000000000000000000000000000000000000000000000000000000000000000000000000000000000000000000000000000000000000000000000000000000000000000000000000000000000000000000000000000000000000000000000000000000000000000000000000000000000000000000000000000000000000000000000000000000000000000000000000000000000000000000000000000000000000000000000000000000000000000000000000000000000000000000000000000000000000000000000000000000000000000000000000000000000000000000000000000000000000000000000000000000000000000000000054240000000000000000000000000000000000000000000000000000000000000000000000000000000000000000000000000000000000000000000000000000000000000000000000000000000000000000000000000000000000000000000000000000000000000000000000000000000000000000000000000000000000000000000000000000000000000000000000000000000000000000000000000000000000000000000000000000000000000000000000000000000000000000000000000000000000000000000000000000000000000000000000000000000000000000000000000000000000000000000000
