This file was generated by Ched 2.7.0.0.
#TITLE ""
#ARTIST ""
#DESIGNER ""
#DIFFICULTY 0
#PLAYLEVEL
#SONGID ""
#WAVE ""
#WAVEOFFSET 0
#JACKET ""
#REQUEST "ticks_per_beat 480"
#00002: 4
#BPM01: 170
#00008: 01
#TIL00: ""
#VOLUME: ""
#HISPEED 00
#MEASUREHS 00
#0011a:14
#00114:0014
#00618:1414
#00614:00140000
#01014:14
#01018:0014
#01010:41
#01812:1414
#01818:00140000
#01918:1414
#01912:00140000
#02014:1414
#0201a:00140000
#02214:1414
#02218:00140000
#0231a:1414
#02312:00140000
#03214:14
#03218:0014
#00512:0014
#0051a:14
#0071a:0014
#00712:14
#0211a:1414
#02114:00140000
#02918:0014
#03118:14
#03312:14
#03512:00140014
#0351a:2414
#03510:41
#03618:1414
#03614:00140000
#05212:14
#06312:14
#0631a:0014
#06314:00000014
#06512:14
#06518:00140000
#06514:0014
#0651a:00000014
#06418:14
#06416:0014
#06412:00140000
#05918:00140000
#05914:0014
#0591a:00000014
#05912:24
#0591f:21
#06018:00140000
#06012:0014
#06014:14
#06010:41
#0611a:14
#06112:00140000
#06118:0014
#06114:00000014
#06214:0014
#06218:00000014
#0621a:24
#07318:16
#07312:00160000
#07316:0000000000000016
#02418:00140014
#02414:1414
#00312:14
#00318:0014
#01112:1414
#0111a:00140000
#01218:14
#01214:0014
#0131a:1414
#01312:00140000
#01414:14
#01418:0014
#01512:14
#01518:00140000
#01514:0014
#0161a:0014
#01618:14
#03014:14
#03712:14
#03718:00140000
#03713:0014
#03719:00000014
#03918:14
#03914:0014
#0391a:00000014
#0381a:0014
#03814:24000014
#04013:14
#04012:0014
#04019:00140000
#04118:14
#04112:00140000
#04119:0014
#04113:00000014
#04518:14
#04514:0014
#04914:14
#04916:0000000000000016
#05018:00000016
#0531a:14
#05314:0024
#05318:00000024
#0561a:14
#05612:0014
#05514:0014
#05518:24
#06918:00140014
#06914:1414
#07714:0014
#0771a:0014
#0791a:14
#07914:00140000
#07918:0014
#07912:00000014
#08018:14
#08014:00140000
#0801a:0014
#08112:14
#0811a:00140000
#08114:0014
#08118:00000014
#08214:14
#04314:14
#04318:00140014
#04312:0014
#04414:14
#0441a:00140000
#04412:0014
#04718:14
#04714:00140014
#0471a:0014
#04710:41
#04818:14
#04812:00140000
#0481a:0014
#0671a:14000014
#06716:00140000
#06712:0014
#06816:14
#06812:00140000
#0681a:0014
#07112:14000014
#07116:00140000
#0711a:0014
#07216:14
#0721a:00140000
#07212:0014
#0511f:11
#05119:24
#0261a:0024
#02612:24
#02610:41
#05718:24
#05714:0024
#06616:24
#07012:24
#0701a:00240000
#07014:0024
#07018:00000024
#02714:0024
#02818:24
#02814:0024
#0421a:24
#0461a:2424
#04612:00240024
#05414:24
#0831a:24
#08312:00240000
#08318:0000000000240000
#08314:00000024
#02512:00003434
#02513:00340000
#07510:41
#03158:54
#03352:54
#0625a:14
#06656:14
#05858:0014
#00454:0014
#0165a:0064
#01658:54
#01758:14
#02652:14
#0275a:14
#02954:14
#03454:14
#03054:64
#03854:14
#0425a:14
#05159:14
#04956:0000000000000056
#05058:00000056
#05454:14
#05558:14
#07356:0000000000000056
#0745a:0014
#07752:14
#07758:14
#07754:0014
#0775a:0014
#08254:64
#04452:0014
#0485a:0014
#0685a:0014
#07252:0014
#0023a0:14
#002380:0024
#004320:14
#004340:0024
#008340:14
#008320:00000024
#009380:1400340000342400
#016380:14
#0163a0:0034
#017380:24
#025340:14
#025330:00340000
#025320:00003434
#026320:24
#0263a0:0014
#0273a0:24
#028340:0014
#029340:24
#030340:14
#030320:0024
#031380:14
#0313a0:0024
#033320:14
#034340:24
#049380:0016
#049370:00000000000000000000003600000000
#049360:0000000000000036
#050380:00003636
#051390:24
#054380:0014
#055380:24
#058380:1424
#073380:0016
#073370:00000000000000000000003600000000
#073360:0000000000000036
#0743a0:0024
#075320:14
#077320:24
#075381:14
#077381:24
#078381:14240000
#078341:00001424
#082341:14
#082321:00000024
