This file was generated by Ched 2.7.0.0.
#TITLE ""
#ARTIST ""
#DESIGNER ""
#DIFFICULTY 0
#PLAYLEVEL
#SONGID ""
#WAVE ""
#WAVEOFFSET 0
#JACKET ""
#REQUEST "ticks_per_beat 480"
#00002: 4
#BPM01: 190
#00008: 01
#TIL00: ""
#VOLUME: ""
#HISPEED 00
#MEASUREHS 00
#00512:14
#0061a:14
#00714:14
#00818:14
#00912:14
#01214:14
#01218:0024
#01418:14
#01414:0024
#02018:14
#02012:0024
#02214:14
#0221a:0024
#02118:14
#02314:14
#0241a:14
#02518:14
#02614:14
#02712:14
#0281a:14
#02810:41
#02914:14
#04112:14
#04218:14
#04314:14
#0441a:14
#04512:14
#04618:14
#04718:0016
#04712:26
#04812:1616
#04918:16
#04912:0016
#04910:41
#05018:16
#05012:0016
#05312:1616
#05512:16
#05518:0016
#05612:1616
#05718:16
#05712:0016
#05818:16
#05812:0016
#0641a:14
#06514:14
#06614:14
#06718:14
#06818:14
#06912:14
#07012:14
#07112:0016
#07118:26
#0711f:00210000
#07218:1616
#07210:41
#07312:16
#07318:0016
#07412:16
#07418:0016
#07718:1616
#07918:16
#07912:0016
#08018:1616
#08112:16
#08118:0016
#08212:16
#08218:0016
#08714:14
#08818:14
#08912:14
#0901a:14
#09014:0014
#00019:14
#00213:14
#05918:1616
#06012:1616
#06010:0041
#06118:16
#06112:0016
#06218:16
#06212:0016
#0621f:11
#08312:1616
#08418:1616
#08512:16
#08518:0016
#08612:16
#08618:0016
#00418:24
#05418:2626
#0631a:24
#07812:2626
#03718:0000000000000026
#03710:0000000000000041
#03812:0000000000000026
#03918:0000000000000026
#01610:41
#0103a0:14
#0113a0:0024
#0163a0:14
#0173a0:24
#018340:14
#019340:24
#030380:1400000000000034
#031380:0000000000000034
#033380:24
#033340:0000000000000014
#034340:0000000000000034
#035340:0000000000000034
#037340:24
#051380:1600000000000036
#052380:0000002600000000
#075320:1600000000000036
#076320:0000002600000000
