This file was generated by Ched 2.7.0.0.
#TITLE ""
#ARTIST ""
#DESIGNER ""
#DIFFICULTY 0
#PLAYLEVEL
#SONGID ""
#WAVE ""
#WAVEOFFSET 0
#JACKET ""
#REQUEST "ticks_per_beat 480"
#00002: 4
#BPM01: 190
#00008: 01
#TIL00: ""
#VOLUME: ""
#HISPEED 00
#MEASUREHS 00
#01313:13
#01319:0013000000000000
#0131a:0000001300000000
#01314:00130000
#01315:0013
#01312:00000033
#05112:00131300
#05118:0000001300000000
#05114:00000033
#05113:0000000000330000
#0311b:0013
#03118:00130013
#03115:0000001300130000
#03112:0000000000000013
#00015:00130013
#0001b:1300001300001300
#00118:00130013
#00112:0000001300001300
#0021b:0000001300001300
#00215:00130013
#00415:0000000000130013
#00418:00001313
#0041a:14
#00412:00130000
#01218:0000000013000013
#01215:00130000
#01212:0023
#0121b:00230000
#01615:0000001300000013
#01618:00001313
#01612:0000000000130000
#01610:41
#01415:0000000013000013
#01418:00130000
#01412:00230000
#0141b:0023
#02118:14
#02113:0014000000000000
#02119:00140000
#02112:0000001400000000
#0211a:0014
#02117:00000034
#02014:0000000000000014
#02015:00130000
#02018:0013
#0201b:00230000
#02012:0023
#02418:0000001300000000
#02415:0013
#02412:00000013
#0241b:0000000000130000
#03018:00130000
#03015:5300000013000013
#0301b:0000000000130000
#03816:00130000
#0381b:0013000000000000
#0381a:0000001300000000
#03815:0013
#03819:0000000000130000
#03814:00000013
#03818:0000000000000013
#0471b:0000000013000013
#04715:0000000000130013
#04712:00140000
#0471a:24
#0521b:0013001300000000
#05215:0000130000000013
#0591b:00130013
#05918:0013
#05915:0000000000130000
#05912:0000001300000013
#0601b:00000013
#06018:0013
#06012:0013
#06015:00000013
#06010:0041
#06112:13
#06118:0013000000000000
#06115:0000130000000013
#0611b:0000001300000000
#06318:0000001400000000
#06315:0000000000000014
#06314:00140000
#0631a:0024000000000000
#06418:0000140000000014
#06415:0000001400000000
#06716:0000000000140000
#0671a:0014
#06712:00000014
#0681a:0000000000140000
#06818:0000000000000014
#06814:00000014
#06812:0014
#0691a:00140000
#06912:00140000
#06914:00001414
#06918:0000000000140014
#04812:00130000
#04818:00130000
#00518:0000001300000000
#00513:0000000000330033
#07918:0000000013000013
#07912:00130000
#0791b:00130000
#07915:2300000000000013
#02818:1300000000005353
#02810:41
#02819:0053000000530000
#0281a:00535300
#0281b:0000005300000000
#04115:0023000000000013
#04118:2300000000130000
#0411b:0000002300000000
#04112:0000002300000000
#0061b:0000001300000000
#00618:13
#00612:0000000000000013
#0071b:0000001300000013
#00712:00000013
#00718:1300000000130000
#00715:0013000013000000
#01818:00000013
#0181b:0013
#01812:0013
#01815:0000000000000013
#02218:0000130000000014
#02215:0013
#02212:00230000
#0221b:0023
#02518:0000000013000013
#02515:0000000013000013
#0251b:00000000000000000000001333000000
#02512:00000000000000000000001333000000
#03318:0000000000000014
#03312:0000242400002400
#04615:13005300530053005300535353000000
#06215:0000001300130023
#0621f:11
#06218:24242424
#07818:2400002400000013
#07814:00240000
#07812:0024
#0801b:00133300000000000000000000000000
#08012:00133300000000000000000000000000
#01018:0013001300000000
#01015:1300000000000024
#01012:00130000
#0101a:0000000000000024
#01715:0000000000000013
#01718:0000000000000013
#05318:1300001300000024
#05315:00130000
#08712:1313
#0871b:1300002300002300
#08715:00230023
#08812:1300002300002300
#0881b:0013
#08818:00230023
#08912:0013
#0891b:1300002300002300
#08915:00230023
#00912:0013
#00915:00000013
#0091b:0013000000001300
#01112:00000000000000001633333333333333
#0151a:13
#01514:0013000000000000
#01513:0000001300000000
#01519:00130000
#01518:0013
#0151b:00000033
#01912:00000000001300000000000000000000
#02314:14
#02319:0014000000000000
#02313:00140000
#0231a:0000001400000000
#02312:0014
#02315:00000034
#02615:0000000000130013
#02618:00000013
#02715:0000000000130000
#02718:0013
#02712:0000240000000013
#0271b:00000013
#0271a:24
#02915:0013000000000053
#02914:00530053
#02913:0000005300530000
#02912:0053
#03512:0013
#03515:00130013
#03518:0000001300130000
#0351b:0000000000000013
#03415:00130000
#03418:0000000013000013
#03412:0000000000130000
#03712:00130000
#03718:00130000
#03715:0033
#0371b:0033
#03710:0000000000000041
#03917:00130000
#03912:0013000000000000
#03913:0000001300000000
#03918:0013
#03914:0000000000130000
#03919:00000013
#03915:0000000000000013
#04012:00130000
#0401b:0013000000000000
#04018:0000001300000000
#04015:0013
#04517:00140014
#04512:00240014
#04515:0014
#0451a:2424
#05018:0000140000000014
#05016:0014
#05014:00000014
#0501a:14
#05012:24
#04918:00000014
#04916:0014
#04914:00140000
#04912:14
#0491a:24
#04910:41
#05512:2400000013000013
#05518:0000000000130013
#0551a:00140000
#0561b:00130000
#05615:00130000
#05714:00000014
#05716:0014
#05718:00140000
#0571a:14
#05712:24
#05812:14
#05814:0000140000000024
#05816:0014
#05818:00000014
#0581a:24
#0711b:0000000013000013
#07112:2600000000130013
#0711f:00210000
#07215:00130000
#07218:00130000
#07210:41
#0741a:00130000
#07419:0013
#07418:00000013
#07415:0000000000000013
#0741b:23
#07412:33333300
#0731b:00000013
#0731a:0013
#07319:00130000
#07312:1300330033003317
#07318:23
#06514:0000001400000000
#06517:0000000000000014
#06518:00140000
#06512:0014000000000000
#06614:00140000
#06617:0000001400000000
#0751b:00131300
#07515:0000001300000000
#07518:0000000000000023
#07519:00000033
#0751a:0000000000330000
#07612:0013001300000000
#07618:0000130000000013
#07715:1300001300000000
#07718:00130000
#07714:0000000000000024
#08213:00130000
#08214:0013
#08218:0000000000000023
#08215:00000023
#08212:23
#0821b:33333300
#08112:00000013
#08113:0013
#08114:00130000
#0811b:13333333
#08117:0000000000000017
#08115:23
#08318:0000000000130000
#0831b:0000001300000013
#08312:00230023
#08315:0023
#08412:00000013
#08415:0013
#0841b:0013
#08418:00000013
#0851b:13
#08515:0013000000000000
#08518:0000130000000013
#08512:0000001300000000
#08618:0000001300130000
#08614:24242424
#09014:0014001400000000
#09018:24242400
#0031a:24242400
#00312:24242400
#0321a:0000242400002400
#03612:0000242400002400
#05414:2400002400000000
#05418:00240000
#0541a:0024
#00455:0000000000000063
#0045a:14
#04755:0000000000000053
#0475a:14
#04752:00140000
#0475b:0000000000000053
#04852:00530000
#04858:00530000
#04855:0013
#0485b:0013
#0525b:0000006300000000
#05952:0000000000000053
#0615b:0000005300000000
#06355:0000000000000064
#06958:0000000000000064
#06954:00000054
#0105a:0000000000000014
#01058:0000005300000000
#01052:00530000
#01055:0000000000000014
#07958:0000000000000053
#07955:0000000000000063
#0065b:0000005300000000
#00658:53
#01355:0053
#02558:0000000063000063
#02555:0000000053000053
#0255b:00000000000000000000002300000000
#02552:00000000000000000000002300000000
#03055:1300000000000063
#03358:0000000000000014
#06055:0013000000000000
#06455:0000005400000000
#07152:6600000000000063
#07155:00160000
#0715b:0000000000000053
#0805b:00230000000000000000000000000000
#08058:0013
#08052:00230000000000000000000000000000
#08055:0013
#01755:0000000000000063
#01758:0000000000000053
#01152:0056
#01252:13
#01558:0063
#0165b:13
#01952:00000000002300000000000000000000
#01855:0000000000000053
#0215a:0054
#02352:0064
#02455:14
#02652:00130000
#0265b:00130000
#02752:00140000
#03458:0000000000000053
#0355b:0000000000000063
#03152:0000000000000053
#03752:00530000
#03755:0000000000000013
#0375b:0000000000000013
#03758:00530000
#03858:0000000000000013
#03955:0000000000000013
#04655:00000013
#05558:0000000000000063
#0555a:00140000
#05552:1400000000000063
#0565b:00630000
#05655:00630000
#05658:0013
#05652:0013
#06255:0000000000000013
#07255:00630000
#07252:0013
#07258:00530000
#0725b:0013
#07352:5300000000000027
#05155:0000000000000013
#05152:0053
#06557:0000000000000054
#06657:0000006400000000
#07652:0000005300000000
#0755b:0063
#07558:0000000000000013
#0835b:0000000000000063
#08552:0000006300000000
#08458:0013000000000000
#04055:0053
#0095b:0053000000000000
#09058:0014
#0815b:63
#08157:0000000000000027
#08654:00000014
#02858:0000000000000013
#08258:0000000000000013
#05058:0000000000000014
#05858:00000014
#05854:0000000000000014
#07455:0000000000000013
#004350:0000000000000013
#005320:00230000
#005350:0013
#005330:0000000000330033
#005320:00000033
#006350:23
#006381:1300000000230000
#0063b1:0000333300000000
#008351:1300333300000023
#008321:0000000000330000
#0083b0:0000000000000013
#0093b0:0033000000000000
#009380:0023
#010320:00130000
#010350:0000000000000024
#010381:0000001300000000
#0103a1:0000000000000024
#011321:00000000000000001633333333333333
#012321:23
#013351:0013
#013321:0000000000003323
#015381:0013
#0153b1:0000000000003333
#0163b1:23
#017381:0000130033330033
#0183b1:00230000
#017350:0000000013330033
#018320:00230000
#018350:0000000000000013
#019320:00000000005300000000000000000000
#019350:00000023
#0213a0:0014
#021370:0000000000003424
#023320:0014
#023350:0000000000003434
#024350:24
#024380:0000000000000013
#025380:0000330033000033
#0253b0:00000000000000000000005333000000
#0263b0:0033230000000000
#025351:0000130033000033
#025321:00000000000000000000005333000000
#026321:0033230000000000
#030351:0000000000000013
#031321:0023000000000000
#031321:0000000000000013
#032351:0023000000000000
#034381:0000000000000013
#0353b1:0023000000000000
#0353b1:0000000000000013
#036381:0023000000000000
#037381:00130000
#0373b1:0000000033000023
#037320:00130000
#037350:0000000033000023
#040350:0013
#040320:00000023
#042380:1333
#0423a0:00330033
#043380:23
#043351:1333
#043331:00330033
#044351:23
#044380:1424
#0443a0:00340000
#044341:0014
#044321:00000034
#045341:24
#047351:0000000000000013
#048321:0033330000000000
#048351:0023
#0473b0:0000000000000013
#048380:0033330000000000
#0483b0:0023
#051320:0013
#051330:0000000000330000
#051340:00000033
#051350:0000000000000023
#0523b0:0000001300000000
#052380:00000023
#053320:00001323
#0543a0:00001424
#055380:0000000000000013
#0563b0:0033330000000000
#056380:0023
#055321:0000000000000013
#056351:0033330000000000
#056321:0023
#059321:0000000000000013
#060351:0023000000000000
#0613b1:0000001300000000
#061381:00000023
#063321:0014
#063331:0000000000340000
#063341:00000034
#063351:0000000000000034
#064321:0024000000000000
#064351:0000001400000000
#064321:0000000000240000
#0653a1:0014
#065391:0000000000340000
#065381:00000034
#065371:0000000000000034
#0663a1:0024000000000000
#066371:0000001400000000
#0663a1:0000000000240000
#066341:00000000000000000000000000001454
#066331:0000000000000000000000000000000000000000000000000000000000540054
#067341:54543454240000000000000000000000
#067331:0054005400540054000000000000000000000000000000000000000000000000
#067381:00000000000000000000000000001454
#067391:0000000000000000000000000000000000000000000000000000000000540054
#068381:54543454240000000000000000000000
#068391:0054005400540054000000000000000000000000000000000000000000000000
#069341:00000014
#070321:00000023
#069380:0000000000000014
#0703b0:00000023
#071320:16
#071350:00260000
#071320:0000000000000013
#072350:0033330000000000
#072320:0023
#0713b1:0000000000000013
#072381:0033330000000000
#0723b1:0023
#073321:1300330033003357
#074321:33333323
#0753b1:0013
#0753a1:0000000000330000
#075391:00000033
#075381:0000000000000023
#076321:0000001300000000
#076351:00000023
#0773b1:00001323
#078321:00001424
#079351:0000000000130033
#080321:00533300000000000000000000000000
#080351:00332300
#079380:0000000000000013
#0803b0:00533300000000000000000000000000
#080380:00332300
#0813b0:13333333
#081370:0000000000000057
#0823b0:33333323
#0833b0:0000000000000013
#084380:0023000000000000
#085320:0000001300000000
#085350:00000023
#028980:130000000000000000000000000000000000000000000000000000000000000000000000000000000000000000000000000000000000000000000000000000000000000000000000000000000000000000000000000000000000530000000000000000000000005353230000000000000000000000000000
#0289b0:0000005300000000
#029950:000000000000000000000000000000130000000000000000000000000000000000000000000000000000000000000000000000000000000000000000000000000000000000000000000000000000000000000000000000000000000000000000000000000000000000530000000000000000000000005353
#029920:0053
#030950:23
#046950:130000000000000000000000000000000000000000000000000000000000000000000000000000000000000000000000000000000000000000000000000000000000000000000000000000000000000000000000000000000000000000000000000000000000000000000000000000000000000000000000000000000000000000000000000000000000000000000000000000000000000000000000000000000000000000000000000000000000000000000000000000000000000000000000000000000000000000000000000000000000000000000000000000000000000000000000000000000000000000000000000000000000000000000000000000000000000000000000000000000000000000000000000000000000000000000000000000000000000000000000000000000000000000000000000000000000000000000000000000000000000000000000000000000000000000000000000000000000000000000000000000000000000000000000000000000000000000000000000000000000000000000000000000000000000000000000000000000000000000000000000000000000000000000000000000000000000000000000000000000000000000000000000000000000000000000000000000000000000000000000000000000000000000000000000000000000000000000000000000000000000000000000000000000000000000000000000000000000000000000000000000000000000000000000000000000000000000000000000000000000000000000000000000000000000000000000000000000000000000000000000000000000000000000000000000000000000000000000000000000000000000000000000000000000000000000000000000000000000000000000000000000000000000000000000000000000000000000000000000000000000000000000000000000000000000000000000000000000000000000000000000000000000000000000000000000000000000000000000000000000000000000000000000000000000000000000000000000000000000000000000000000000000000000000000000000000000000000000000000000000000000000000000000000000000000000000000000000000000000000000000000000000000000000000000000000000000000000000000000000000000000000000000000000000000000000000000000000000000000000000000000000000000000000000000000000000000000000000000000000000000000000000000000000000000000000000000000000000000000000000000000000000000000000000000000000000000000000000000000000000000000000000000000000000000000000000000000000000000000000000000000000000000000000000000000000000000000000000000000000000000000000000000000000000000000000000000000000000000000000000000000000000000000000000000000000000000000000000000000000000000000000000000000000000000000000000000000000000000000000000000000000000000000000000000000000000000000000000000000000000000000000000000000000000000000000000000000000000000000000000000000000000000000000000000000000000000000000000000000000000000000000000000000000000000000000000000000000000000000000000000000000000000000000000000000000000000000000000000000000000000000000000000000000000000000000000000000000000000000000000000000000000000000000000000000000000000000000000000000000000000000000000000000000000000000000000000000000000000000000000000000000000000000000000000000000000000000000000000000000000000000000000000000000000000000000000000000000000000000535353230000000000000000000000000000000000000000000000000000000000000000000000000000000000000000000000000000000000000000000000000000000000000000000000000000000000000000000000000000000000000000000000000000000000000000000000000000000000000000000000000000000000000000000000000000000000000000000000000000000000000000000000000000000000000000000000000000000000000000000000000000000000000000000000000000000000000000000000000000000000000000000000000000000000000000000000000000000000000000000000000000000000000000000000000000000000000000000000000000000000000000000000000000000000000000000000000000000000000000000000000000000000000000000000000000000000000000000000000000000000000000000000000000000000000000000000000000000000000000000000000000000000000000000000000000000000000000000000000000000000000000000000000000000000000000000000000000000000000000000000000000000000000000000000000000000000000000000000000000000000000000000000000000000000000000000000000000000000000000000000
