This file was generated by Ched 2.7.0.0.
#TITLE ""
#ARTIST ""
#DESIGNER ""
#DIFFICULTY 0
#PLAYLEVEL
#SONGID ""
#WAVE ""
#WAVEOFFSET 0
#JACKET ""
#REQUEST "ticks_per_beat 480"
#00002: 4
#BPM01: 115
#00008: 01
#TIL00: ""
#VOLUME: ""
#HISPEED 00
#MEASUREHS 00
#0021a:14
#00314:14
#00414:14
#01014:14
#01212:14
#01312:0016
#01318:26
#01310:41
#01512:16
#01518:0016
#0251a:14
#02614:14
#02718:14
#02812:14
#02918:14
#02910:41
#03014:14
#0311a:14
#03212:14
#04412:14
#0451a:14
#04614:14
#0011a:14
#00618:14
#00712:14
#00812:14
#00518:14
#00510:41
#01118:14
#01918:16
#01912:0016
#02018:16
#02012:0016
#04712:0016
#04718:26
#0471f:21
#04912:16
#04918:0016
#05318:16
#05312:0016
#05418:16
#05412:0016
#0391f:11
#02118:2626
#02110:41
#02218:26
#02312:2626
#02412:26
#04118:24
#05918:2626
#06018:26
#06112:2626
#06212:26
#0091a:24
#05518:2626
#05618:26
#05712:2626
#05812:26
#04810:41
#03710:41
#014380:1626
#016320:1626
#017380:1626
#018320:1626
#033380:14
#034380:24
#035340:14
#036340:24
#0373a0:14
#0383a0:24
#039320:14
#040320:24
#041380:14
#042360:00000038
#043360:28
#048380:1626
#050320:1626
#051380:1626
#052320:1626
#062320:16003626
