This file was generated by Ched 2.7.0.0.
#TITLE ""
#ARTIST ""
#DESIGNER ""
#DIFFICULTY 0
#PLAYLEVEL
#SONGID ""
#WAVE ""
#WAVEOFFSET 0
#JACKET ""
#REQUEST "ticks_per_beat 480"
#00002: 4
#BPM01: 115
#00008: 01
#TIL00: ""
#VOLUME: ""
#HISPEED 00
#MEASUREHS 00
#00118:0013
#00112:00150015
#0011b:23
#0161b:1313
#01612:0013000000000000
#01618:0000130000130000
#01615:0000001300001300
#01915:00000013
#01912:0000131300000000
#01918:0000000013130000
#0191a:24
#03712:13
#0371b:13
#03718:0013
#03710:41
#0381b:13130000
#03815:0013
#03812:13130000
#0021b:13
#00212:00150000
#00218:0013
#00315:0013
#00319:00150015
#00312:13
#00412:13
#00419:00150000
#00415:0013
#00515:0013001300000000
#00518:13130013
#0051b:0013
#00512:0000000000130000
#00510:41
#00618:0013001300000000
#00615:13130013
#00612:0013
#0061b:0000000000130000
#00718:13
#0071a:00000034000000000000000000000000
#00812:14
#00817:14
#00815:00140000
#0081a:00140000
#00915:0013000023000000
#00918:2300000000130000
#0091b:00230000
#00912:00000023
#01015:0013000000000000
#01012:0025
#01019:00000025
#01018:23
#0101b:00230000
#01118:0013000023000000
#01115:2300000000130000
#01112:00230000
#0111b:00000023
#01212:24000013
#01218:0000000000000013
#01216:00240000
#0121a:0024
#0131b:00130000
#01315:2300001300000000
#01312:00000013
#01318:0000000023000013
#01310:41
#01418:0024002400001300
#01415:0000000000000013
#01414:24242400
#01515:0000130000000013
#01518:0000001300001300
#0151b:23
#01512:0023
#0171b:1300000000130000
#01715:00000013
#01718:00000033000000000000000000001300
#01712:0000000000130000
#01812:1300000000130000
#0181b:0000000000130000
#01818:00000013
#01815:00000033000000000000000000001300
#02018:13
#02015:0013
#0201b:00000033000000000000130000000000
#02112:13
#02113:0014000000000000
#0211b:0013
#02119:0000000000140000
#02114:00250000
#02117:00000025
#02110:41
#02212:13000024
#02213:0014000000000000
#0221a:0024
#02214:00250000
#02415:0000000013130000
#0241b:13
#02419:0014000000000000
#02417:00250000
#0251b:1323
#02515:0013000000230000
#02518:00000000130000000000002300000000
#02512:0000001300000000
#0271b:1323
#02715:0013000000230000
#02718:00000000130000000000002300000000
#02712:0000001300000000
#0291b:000000000033130000000000000000000000000000000000
#02912:000000000000000000000000130000000000000000000033
#02915:000000000000000000000000000000000033130000000000
#02918:130000000000000000000033000000000000000000000000
#02910:41
#0301b:000000000033130000000000000000000000000000000000
#03018:130000000000000000000033130000000000000000000000
#0331a:14
#03412:14
#03517:14
#03615:14
#03912:13
#03917:13
#03914:00130000
#03916:0013
#03919:00130000
#0391b:0013
#0391f:11
#0401b:13
#04016:13
#04014:00130013
#04012:0013
#04019:00130013
#04017:0013
#0531b:00130013
#05312:1400000000130000
#05318:0000001300000000
#05315:0013
#04312:2313000000000000
#0431b:0000000023130000
#04318:00230000
#04315:00000023
#0461b:00000013
#04618:0000000000000013
#0461a:24
#04616:00240000
#04612:0024
#04712:00130000
#04715:2300001300000000
#0471b:00000013
#04718:0000000023000013
#0471f:21
#04818:0024002400001300
#04815:0000000000000013
#04814:24242400
#04810:41
#04915:0000130000000013
#04918:0000001300002300
#04912:23
#0491b:0023
#05018:0013000000130000
#05012:0000001300000000
#0501b:23000023
#05015:00232300
#05112:1300000000130000
#05118:00000013
#05115:0000000000000013
#0511b:0000000000130000
#0521b:1300000000130000
#05212:0000000000130000
#05215:00000013
#05218:0000000000000013
#05415:13
#05418:0013
#05412:00000033000000000000130000000000
#0551b:13
#05519:0014000000000000
#05512:0013
#05513:0000000000140000
#05517:00250000
#05514:00000025
#04412:2313000025000000
#04419:00000025
#04418:00230000
#04512:2313000000000000
#0451b:0000000023130000
#04518:00230000
#04515:00000023
#0591a:14000024
#05916:0014000000140000
#05912:00241400
#0561b:13
#05619:0014000000000000
#05612:0024
#0561a:00000024
#05617:00250000
#0231b:13
#02319:0014000000000000
#02312:0013
#02313:0000000000140000
#02317:00250000
#02314:00000025
#02612:1323
#02618:0013000000230000
#02615:00000000130000000000002300000000
#0261b:0000001300000000
#03112:000000000033130000000000000000000000000000000000
#0311b:000000000000000000000000130000000000000000000033
#03118:000000000000000000000000000000000033130000000000
#03115:130000000000000000000033000000000000000000000000
#03212:000000000033130000000000000000000000000000000000
#03215:130000000000000000000033130000000000000000000000
#05712:13
#05713:0014000000000000
#0571b:0013
#05719:0000000000140000
#05714:00250000
#05717:00000025
#05812:1300000000000025
#05813:0014000000000000
#05818:0023
#05819:00000025
#05815:0000000000230000
#05814:00250000
#0601a:1424
#06016:0014000000000000
#06012:00240024
#06112:14000024
#06116:0014000000140000
#0611a:00241400
#06212:14
#06216:0014000022000000
#06214:00000022
#0621a:00240000
#04212:23242526
#04218:00000026
#0421b:23
#0421a:00240000
#04219:0025
#02819:00250000
#02812:00002525
#0411b:23
#04118:00230023
#04115:0023
#04258:00000016
#04252:00000016
#00152:00150015
#00252:00150000
#00259:00000015
#00258:0053
#00359:00150015
#00459:00150000
#00452:00000015
#00455:0063
#00758:53
#0075a:0014
#01059:00000015
#01052:0015
#01252:14
#01256:00140000
#0125a:0014
#0175b:53
#01758:0000001300000000
#01852:63
#01855:0000001300000000
#02058:63
#0205b:0000000000630000
#02154:00150000
#02157:00000015
#02254:00150000
#0225a:0014
#02252:00000014
#02455:0000000000530000
#02457:00150000
#02859:15150000
#02852:00001515
#02758:00000000000000000000006300000000
#0295b:00530000
#02952:0053
#02955:00000053
#02958:53
#0305b:00530013
#03058:5353
#0335a:54
#03357:0014
#03452:64
#03455:0014
#03557:64
#0355a:0014
#03655:54
#03652:0014
#03758:0013
#03855:0013
#05152:63
#05155:0000001300000000
#0525b:53
#05258:0000001300000000
#05352:14
#05455:53
#05452:0000000000530000
#05652:0014
#0565a:00000014
#05657:00150000
#04452:0015
#04459:00000015
#0465a:14
#04656:00140000
#04652:0014
#05557:00150000
#05554:00000015
#05859:00000015
#05852:0000000000000015
#05854:00150000
#05952:00140000
#0595a:00000014
#0605a:0014
#06052:00140014
#06254:00000012
#06256:0012
#0625a:00140000
#01355:13
#01358:0013
#0155b:13
#01552:0013
#02357:00150000
#02354:00000015
#03152:00630000
#0315b:0063
#03158:00000063
#03155:63
#03252:00630013
#03255:6363
#04755:13
#04758:0013
#04952:13
#0495b:0013
#05754:00150000
#05757:00000015
#0615a:00140000
#06152:00000014
#0195a:14
#002380:0013
#002390:00000025
#004350:0013
#004320:00000025
#007380:13
#0073a0:00000034000034002400000000000000
#008320:00001424
#008371:00001424
#0173b1:13
#017381:00000033000023000000000000000000
#018321:13
#018351:00000033000023000000000000000000
#020381:13
#0203b1:00000033000023000000000000000000
#0203b1:0000000000130000
#020381:0000000000000023
#024351:0000000000130000
#024321:0000000000000023
#027381:00000000000000000000001300000000
#027391:0000000000000035
#028391:25
#029381:130000000000000000000033230000000000000000000000
#0293b1:000000000033330000000000000000000000000000000000
#029320:000000000000000000000000130000000000000000000033
#029350:000000000000000000000000000000000033330000000000
#030320:23
#030381:130000000000000000000033330000000000000000000000
#0303b1:000000000033330000000000000000000000230000000000
#031351:130000000000000000000033230000000000000000000000
#031321:000000000033330000000000000000000000000000000000
#0313b0:000000000000000000000000130000000000000000000033
#031380:000000000000000000000000000000000033330000000000
#0323b0:23
#032351:130000000000000000000033330000000000000000000000
#032321:000000000033330000000000000000000000230000000000
#0333a1:14
#033371:0024
#034321:14
#034351:0024
#035371:14
#0353a1:0024
#036351:14
#036321:0024
#051321:13
#051351:00000033000023000000000000000000
#0523b1:13
#052381:00000033000023000000000000000000
#054351:13
#054321:00000033000023000000000000000000
#054321:0000000000130000
#054351:0000000000000023
