This file was generated by Ched 2.7.0.0.
#TITLE ""
#ARTIST ""
#DESIGNER ""
#DIFFICULTY 0
#PLAYLEVEL
#SONGID ""
#WAVE ""
#WAVEOFFSET 0
#JACKET ""
#REQUEST "ticks_per_beat 480"
#00002: 4
#BPM01: 115
#00008: 01
#TIL00: ""
#VOLUME: ""
#HISPEED 00
#MEASUREHS 00
#0161b:13001313
#01618:000000130000000000000000000000000000000012000000
#01612:0000001300001300
#01616:0000000013000012
#01615:00130000
#01614:0000000000130000
#03712:12
#0371c:12
#03710:41
#0011a:00140014
#00116:000000140000000012000000000000140000000000140000
#00112:24141400
#00118:0000001200000000
#00214:12120000
#0021a:14141414
#00215:0013
#00218:0000001200000000
#00216:000000140000000012000000000000140000000000000000
#00812:13131300
#00817:000000000000130000000000130000130000000053000000
#00816:000000000000000000000000000000000000130000000000000000000000000000000000000000000053000000000000
#0081b:1300001300001300
#00818:00000000000000000000000000530000
#00819:000000000000000000000000000000000000005300000000
#0081a:000000000000000000000000000000000000000000000000000000000000000000000000005300000000000000000000
#00912:00001300001300000000130000000000
#0091b:0000000013000000000000000013000000000000000000001300130000000000
#00917:0000000000130000
#00918:1300000000000000000013000000000000000000000000000000000000130000
#00915:23232323
#01012:000000000000130000000000000000130000000000000000230000000000000000000000000053000000000000000000
#01018:000000000000000000000000000000000000130000000000000000000000000000000000000000000000000000000000005300000000000000000000000000000000000000000000000000530000000000000000000000000000000000000000
#0101b:000000000000130000000000000000130000000000000000000053000000000000000000230000000000000000000000
#01015:230000000000000000000000000000000000000000000000230000000000000000000000000000000000000000000000000000530000000000000000000000000000000000000000005300000000000000000000000000000000000000000000
#01016:000000000000000000000000005300000000230000000000
#01019:000000000000000000000000000000000000000000000000005300000000000000000000005300000000000000000000
#0101a:000000000000000000000000000000000000000000000000000000000000000000000000000000000000000000000000000000530000000000000000000000000000000000000000005300000000000000000000000000000000000000000000
#01013:000000000000000000000000000000000000000000000000000000000000000000000000000000000000000000000000005300000000000000000000000000000000000000000000000000530000000000000000000000000000000000000000
#01014:000000000000000000000000000000000000000000000000005300000000000000000000005300000000000000000000
#01017:000000000000000000000000530000000000005300000000
#0131b:00130013
#01319:000000000000000000000000000000000000000000130013
#01318:000013000000000000000000000000130000000000000000
#01315:000000130000000000000000000013000000000000000000
#01316:00132300
#01317:2300001300000000
#01312:2400001400000000
#0131a:0024
#01310:41
#01717:13
#01715:000000000000000000000000000000000013000000000000
#01712:240000000000000000130000000000000000000000000000130000000000000000000000000000001300000000000000
#0171b:00000013000000000000000000001300
#01718:0000000000131300
#0171a:0024
#0181b:000000000000000000000000000000130000000013000000
#01815:13000013000000000000000013001600
#01812:0000001300000000000000000000000000000000130000000000000000000000
#01818:240000000000000000130000000000000000000000000000130000000000000000000000130000000000000000001300
#01814:0024
#0201b:0000000023130000
#02016:0014001414000000
#02017:13
#02018:000000000013000000000000000000000000000000000000
#02012:23
#02015:00230000
#0251a:000000000014
#02512:130000000000130000000000230000000000000000000014
#0251b:13132300
#02518:000000130000000000000000000000000023000000000000
#02515:000000000000000013160000000000000023000000000000
#02516:0000000000000014
#02616:140000000013
#02618:000000000000000013000013000000000000000000000000
#0261b:000000130000000000001300
#02612:000000000000130000000000000000000023000000000013
#02615:0016000023000000
#02617:000000000000000000000000000000000023000000000000
#0271a:120000000000000000000000000000000024000000000000
#02715:0012001200000000
#02712:000000000000120000000000000000000024000000000000
#0271c:00120000
#02716:000000000000000000000012000000240000000000000000
#02719:0012000000000000
#02718:000012240000
#0331c:12
#03312:1212
#03318:0000120000120012
#03316:00120012
#04117:12
#04116:00120000
#04115:0012
#04114:00000012
#0411b:23
#0411a:00230000
#04119:0023
#04118:00000023
#00018:00000013
#0001b:0000000000000013
#00512:1413001300000000
#0051a:14
#00518:0013001300130000
#00516:000000000012000000000000000000000000000000140000
#0051b:00131313
#00510:41
#00616:000012000000000000000000000000000000000000140000
#00618:000000130000000012000000000000000000000000000000
#00612:14131313
#00615:0000001300130000
#0061a:14
#0061b:00130000
#01416:1300000000530000530000000053000000000000140000001300000000000000
#01417:0000000000000013
#0141b:00000013
#01412:0000000053000000005300005300000000000000000000000000000014000000
#01418:00000000000000240000000000000000000000000000002400000000000000000000000000000000000000000000000000000000000000000000000000000000
#0141a:00242400
#01414:00000000000000000053000000000000005300000000000000530000000000000000000000000000000000000000000000000000000000000000000000000000
#01915:0013001300000000
#01918:0013000000130000
#01912:26230013
#0191b:00002313
#01916:000000000000000000000000000000000000000000000000000000000000000000000000000000000000000000000000000000000000000000000000000000000000000000000000000000000000000000000000000000000000000000000000000000000000000000000000000000000000000000000000000000000000000000000000000000000000000000000000000000000000000000000000000000000000000000000074540000000000000000000000000000000000000000000000
#02815:0013001300130000
#02818:000000130000000013000013000000000013000000000000
#02812:00242424
#0281a:0000240024000024
#02816:0000000000000024
#03812:0000000000000012
#03817:12120000
#0381c:12
#03818:0000000000000012
#0391c:1212
#03912:00120012
#03916:12
#03918:0000000000120000
#03919:0000000000000012
#03914:0012000000000000
#0391a:0000001200000000
#03915:0000000000000012
#0391f:11
#0401c:12
#0401a:0012000000000000
#04014:00120000
#04012:1200001200001300
#04016:0013
#0401b:0013
#04017:00000013
#04018:00120000
#00712:14000013000000000000130000000000
#0071b:13000000000000000000000000000000000000000000000000000053000000000000000000000000130000000000000000000000000000000000000000000000
#00718:000000000000000000530000000000000000000000000000000000000000000000000000000000000000000000000000000000000000000000000000000000000000000000000000130000000000000000000000000000000000000000000000000000000000000000000000000000000000000000000000000000000000000000000000000000000000000000000000000000000000000000000000000000001200000000000000000000000000000000000000000000000000000000000000
#00713:00000000000000000000000000530000000000000000000000000000000000001400000000000000000000000000000000000000000000000000000000000000
#00719:00005300000000000000000000000000000000000000000000530000000000000000000000000000000000000000000012000000000000000000000000000000
#00715:00000000000000000000000000000053000000000000000000000000000000000000000000000000000000000000000000000000000000001200000000000000
#00716:000000000000000000000000000000000000001200000000
#0071a:00530000000000000000000000000000000000000000000000005300000000000000000000000000000000000000000000000000000000000000000000000000
#00714:0000000000000053000000000000000000000000000000000000000000000000
#01217:00000013
#01216:0000000000000013
#01212:53000000000000000000000000000000000000630000000000000000000000000000000000000000000000000000000013000000000000000000000000000000
#0121a:00530000000000000000000000000000000063000000000000000000000000000000000000000000000000000000000000000000000000001400000000000000
#0121b:23000000000000000000000000000000000000630000000000000000000000000000000000000000000000000000000000000000000000000000000000000000
#01213:00530000000000000000000000000000000063000000000000000000000000000000000000000000000000000000000000000000000000000000000000000000
#01214:00005300000000000000000000000000006300000000000000000000000000000000000000000000000000000000000000000000000000000000000000000000
#01215:00000053000000000000000000000000630000000000000000000000000000000000000000000000000000000000000000000000000000000000000000000000
#01219:00005300000000000000000000000000006300000000000000000000000000000000000000000000000000000000000000000000000000000000000000000000
#01218:00000053000000000000000000000000630000000000000000000000000000000000000000000000000000000000000000000000000000000000000000000000
#03412:12
#0341c:1212
#03416:00120012
#03418:00120000
#0341a:0000001200000000
#03518:1200000000000012
#03512:1212
#0351c:00120000
#03516:0000120000120000
#0351a:00000012
#03616:12
#0361c:1212
#03612:00120000
#03618:00120012
#0361a:0000001200000000
#04214:00001400000014000064000000000000
#04212:2424246c
#04216:2400240025640000
#04213:0000000000000000000000000000000000640000000000000000000000000000
#04215:0000000000000000000000000000000000000064000000000000000000000000
#04217:0000000000000000000000000000000000000000006400000000000000000000
#04218:00640000000000000000000000000000006400000000000000000000000000000064000000000000000000006400000000000000000000000000000000000000
#04219:0000000000000000000000000000000000000000000000640000000000000000
#0421a:0064000000000000006400000000000000640000000000000000000000000000
#05116:000000000000000000000000000000000014000014000000
#05112:13000000000000000000000000000053000000000000000000000000000000001300000000000000130000000000000000000000000000001300000000000000
#0511b:13000000000000000000000000000053000000000000000000000000000000001300000000000000130000000000000013000000000000000000000000000000
#05118:00000053000000000000000053000000000000000000000000000000000000000000000000000000000000000000000000000000000000000000000000000000
#05119:00005300000000000000000000530000000000000000000000000000000000000000000000000000000000000000000000000000000000000000000000000000
#0511a:00530000000000000000000000005300000000000000000000000000000000000000000000000000000000000000000000000000000000000000000000000000
#05115:00000053000000000000000053000000000000000000000000000000000000000000000000000000000000000000000000000000000000000000000000000000
#05114:00005300000000000000000000530000000000000000000000000000000000000000000000000000000000000000000000000000000000000000000000000000
#05113:00530000000000000000000000005300000000000000000000000000000000000000000000000000000000000000000000000000000000000000000000000000
#05212:000000000000000000530000000000000000000000000000000000000000000000000000530000000000000000000000000000000000000000000000000000000000000000000000000000000000000000000000000000000000000000000000000000000000000000000000000000000000000000000000130000000000000000000000000000000000000000000000000000000000000000000000000000001300000000000000180000000000000000000000000000000000000000000000
#0521b:000000000000000000530000000000000000000000000000000000000000000000000000530000000000000000000000000000000000000000000000000000000000000000000000000000000000000000000000000000000000000000000000000000000000000000000000000000000000000000000000130000000000000000000000000000000000000000000000000000000000000000000000000000000000000000000000000000000000000000000000000000001300000000000000
#05218:13000000000000000000000000000053000000000000000000000000000000001300000000000000000000000000000000000000000000000000000000000000
#05215:13000000000000000000000000000053000000000000000000000000000000001300000000000000000000000000000016000000000000000000000000000000
#0521a:00005300000000000000000000530000000000000000000000000000000000000000000000000000000000000000000000000000000000000000000000000000
#05219:00530000000000000000000000005300000000000000000000000000000000000000000000000000000000000000000000000000000000000000000000000000
#05213:00005300000000000000000000530000000000000000000000000000000000000000000000000000000000000000000000000000000000000000000000000000
#05214:00530000000000000000000000005300000000000000000000000000000000000000000000000000000000000000000000000000000000000000000000000000
#04714:000013170000000000000000000000000000000000130013
#04715:0000000000170000
#04719:000000000000001300000000
#04717:00132300
#04716:2300001300000000
#04712:00132424
#0471a:2400001400000000
#0471f:21
#05316:180000000000000000000000000000000000000000000000000000000000000000000000000000000000000000000000000000000000000000000000000000000000000000000000000000000000000000000000000000000000000000000000000000000000000000000000000000000000000000000000000000000000000000000000000000000000000000000000000000000000000000000000000000000000000000000074540000000000000000000000000000000000000000000000
#05318:0013001300000000
#0531b:00130013
#05315:0013000000130000
#05312:00001313
#04912:2400001400000013
#04917:2300001300000013
#04916:00132313
#04915:0017000000000000
#04914:000000000000000000000000000013170000000000000000
#04919:001300000000000000000000
#0491b:00130000
#0491a:00002424
#04814:000000000000000000000000000000000000000000240000000000000000000000000000000000000000000000000000000000000000000000000000000000000000000000240000000000000000000000000000000000000000000000000000000000000000000000000000000000001300000000000000170000000000000000000000000000000000000000000000000000000000000000000000000000000000000000000000000000000000000000000000000000000000000000000000
#04817:1300000000530000530000000053000000000000000000001300000000000000
#04816:0000000000000013
#04812:00242413
#0481a:0000000000000014
#04810:41
#0481b:0000000053000000005300005300000000000000000000000000000000000000
#04819:00000000000000000053000000000000005300000000000000530000000000000000000000000000000000000000000000000000000000000000000000000000
#05015:130000160013000000000000000000000000000000130000
#05018:001300240000000000000000
#0501b:000000001300001300000000
#05016:0000001824000000
#05012:0000000000000000000000130000001c00132c0000000000
#0501a:24
#05815:00001300000053000013001329000000
#05818:0000230000140000
#05819:0013000000000000
#0581b:00132300
#05812:2300005323000029
#05817:23
#0591b:13130000
#05918:0013000000140000
#05916:13
#05914:0014000000000000
#05912:00251313
#05915:0000000000130000
#05919:00000025
#0601b:130000000000130000000000006300000000230000000000
#06014:000000000000140000000000000000000000000000000000006300000000000000000000006300000000000000000000
#06018:000000000000000000000000130000000000000000000000000000000000000000000000000000000000000000000000006300000000000000000000000000000000000000000000000000630000000000000000000000000000000000000000
#06012:000000000000250000000000230000000000006300000000
#06016:000000000000000000000000006300000000230000000000
#06013:000000000000000000000000000000000000000000000000000000000000000000000000000000000000000000000000006300000000000000000000000000000000000000000000000000630000000000000000000000000000000000000000
#06015:000000000000000000000000000000000000000000000000000000000000000000000000000000000000000000000000000000630000000000000000000000000000000000000000006300000000000000000000000000000000000000000000
#06019:000000000000000000000000000000000000000000000000006300000000000000000000006300000000000000000000
#0601a:000000000000000000000000000000000000000000000000000000000000000000000000000000000000000000000000000000630000000000000000000000000000000000000000006300000000000000000000000000000000000000000000
#06017:000000000000000000000000630000000000006300000000
#04517:00000000000000000000130000130000
#04512:00001300001300000000130000130000
#0451b:0000000013000000000000000013000000000000000000000000000000000000
#04518:13000000001300000000000000000000
#04515:23232323
#02912:140000000000000000000054140000000000000000000054
#0291a:000000000054140000000000000000000054140000000000
#02910:41
#03016:140000000054140000000054140000000000000000000000
#03012:140000000000000000000054140000000000000000000000
#0301a:000000000054140000000000000000000000000000000000
#03014:0000000000000013
#03019:0000000000000013
#03112:1400005400000054
#03114:0014000000140000
#03118:0000001400000014
#03116:14545454
#0311a:0054000000540000
#0321a:1414
#03216:540000120000000000000012000000120000000000000000
#03218:000000000012000000120000000000000012000000120000
#03212:00140014
#01116:00000000000000000000130000130000
#0111b:00001300001300000000130000130000
#01112:0000000013000000000000000013000000000000000000000000000000000000
#01115:13000000001300000000000000000000
#01118:23232323
#02117:1300005313000000
#02119:0013000000130000
#02115:0013000000130000
#0211b:00130013
#02118:00230023
#02112:2323
#02110:41
#02116:0000000000000053
#02415:0000000000000000230000000000000016000000000000630063000000000000
#02416:13000064
#02414:00001300000000000000006300630000
#02418:0000000013000000000000005300000000000000000000630063000000000000
#02412:0000130000230063
#0241b:2300000000230063
#02413:0000000000000000000000000000000000000000006300000000006300000000
#0241a:0000000000000000000000000000000000000000006300000000006300000000
#02419:00000000000000000000006300630000
#00312:24140014
#00316:0014001200140014
#00318:001200
#0031a:24141400
#0041a:12120000
#00412:14141414
#00418:000012130000
#00416:0014001200140014
#02217:130000000000000000000000230000000000006300000000
#02219:000000000000130000000000000000000000000000000000006300000000000000000000006300000000000000000000
#02215:000000000000000000000000130000000000000000000000000000000000000000000000530000000000000000000000000000630000000000000000000000000000000000000000006300000000000000000000000000000000000000000000
#0221b:000000000000130000000000006300000000230000000000
#02212:230000000000000000000000230000000000006300000000
#02216:000000000000000000000000006300000000230000000000
#02218:000000000000000000000000000000000000000000000000230000000000000000000000000000000000000000000000006300000000000000000000000000000000000000000000000000630000000000000000000000000000000000000000
#02213:000000000000000000000000000000000000000000000000000000000000000000000000000000000000000000000000006300000000000000000000000000000000000000000000000000630000000000000000000000000000000000000000
#02214:000000000000000000000000000000000000000000000000006300000000000000000000006300000000000000000000
#0221a:000000000000000000000000000000000000000000000000000000000000000000000000000000000000000000000000000000630000000000000000000000000000000000000000006300000000000000000000000000000000000000000000
#05512:00132300
#05518:0013000000002300
#05514:0013000000000000
#05515:0000230000130000
#05519:0000005300130000
#0551b:23000013
#05516:2300005300000053
#05517:0023
#05513:0000000000000053
#02316:1300005313000000
#02314:0013000000130000
#02318:0013000000130000
#02312:00130013
#02315:00230023
#0231b:2323
#02317:0000000000000053
#0431b:00001300001300000000130000000000
#04312:0000000013000000000000000013000000000000000000001300130000000000
#04316:0000000000130000
#04315:1300000000000000000013000000000000000000000000000000000000130000
#04318:23232323
#0441b:000000000000130000000000000000130000000000000000230000000000000000000000000053000000000000000000
#04415:000000000000000000000000000000000000130000000000000000000000000000000000000000000000000000000000005300000000000000000000000000000000000000000000000000530000000000000000000000000000000000000000
#04412:000000000000130000000000000000130000000000000000000053000000000000000000230000000000000000000000
#04418:230000000000000000000000000000000000000000000000230000000000000000000000000000000000000000000000000000530000000000000000000000000000000000000000005300000000000000000000000000000000000000000000
#04417:000000000000000000000000005300000000230000000000
#04414:000000000000000000000000000000000000000000000000005300000000000000000000005300000000000000000000
#04413:000000000000000000000000000000000000000000000000000000000000000000000000000000000000000000000000000000530000000000000000000000000000000000000000005300000000000000000000000000000000000000000000
#0441a:000000000000000000000000000000000000000000000000000000000000000000000000000000000000000000000000005300000000000000000000000000000000000000000000000000530000000000000000000000000000000000000000
#04419:000000000000000000000000000000000000000000000000005300000000000000000000005300000000000000000000
#04416:000000000000000000000000530000000000005300000000
#05412:0000000023130000
#05416:1314001414000000
#05415:000000000013000000000000000000000000000000000000
#0541b:23
#05418:00230000
#05618:000000000000000000000000130000000000000000000000000000000000000000000000530000000000000000000000000000630000000000000000000000000000000000000000006300000000000000000000000000000000000000000000
#05614:000000000000130000000000000000000000000000000000006300000000000000000000006300000000000000000000
#05612:000000000000130000000000006300000000230000000000
#05617:000000000000000000000000006300000000230000000000
#0561b:230000000000000000530000230000000000006300000000
#05616:230000000000000000000000230000000000006300000000
#05615:000000000000000000000000000000000000000000000000230000000000000000000000000000000000000000000000006300000000000000000000000000000000000000000000000000630000000000000000000000000000000000000000
#05613:000000000000000000000000000000000000000000000000000000000000000000000000000000000000000000000000000000630000000000000000000000000000000000000000006300000000000000000000000000000000000000000000
#05619:000000000000000000000000000000000000000000000000006300000000000000000000006300000000000000000000
#0561a:000000000000000000000000000000000000000000000000000000000000000000000000000000000000000000000000006300000000000000000000000000000000000000000000000000630000000000000000000000000000000000000000
#05715:0013000000002300
#05719:0013000000000000
#0571b:00132300
#05718:0000230000130000
#05714:0000005300130000
#05712:23000013
#05717:2300005300000053
#05716:0023
#0571a:0000000000000053
#06112:13130025
#06115:0013000000000000
#06117:13
#06118:0014000000130000
#0611b:00001313
#06114:0000000000140000
#06119:00250000
#06212:130000000000130000000000006300000000230000000000
#06218:000000000000000000000000140000000000000000000000000000000000000000000000000000000000000000000000000000630000000000000000000000000000000000000000006300000000000000000000000000000000000000000000
#06215:000000000000000000000000130000000000000000000000000000000000000000000000000000000000000000000000006300000000000000000000000000000000000000000000000000630000000000000000000000000000000000000000
#06217:000000000000000000000000006300000000230000000000
#0621b:000000000000000000000000230000000000006300000000
#06219:000000000000000000000000250000000000000000000000006300000000000000000000006300000000000000000000
#06213:000000000000000000000000000000000000000000000000000000000000000000000000000000000000000000000000000000630000000000000000000000000000000000000000006300000000000000000000000000000000000000000000
#06214:000000000000000000000000000000000000000000000000006300000000000000000000006300000000000000000000
#0621a:000000000000000000000000000000000000000000000000000000000000000000000000000000000000000000000000006300000000000000000000000000000000000000000000000000630000000000000000000000000000000000000000
#06216:000000000000000000000000630000000000006300000000
#04616:00000013
#04617:0000000000000013
#0461b:53000000000000000000000000000000000000630000000000000000000000000000000000000000000000000000000013000000000000000000000000000000
#04612:23000000000000000000000000000000000000630000000000000000000000000000000000000000000000000000000000000000000000001400000000000000
#0461a:00530000000000000000000000000000000063000000000000000000000000000000000000000000000000000000000000000000000000000000000000000000
#04619:00005300000000000000000000000000006300000000000000000000000000000000000000000000000000000000000000000000000000000000000000000000
#04618:00000053000000000000000000000000630000000000000000000000000000000000000000000000000000000000000000000000000000000000000000000000
#04613:00530000000000000000000000000000000063000000000000000000000000000000000000000000000000000000000000000000000000000000000000000000
#04614:00005300000000000000000000000000006300000000000000000000000000000000000000000000000000000000000000000000000000000000000000000000
#04615:00000053000000000000000000000000630000000000000000000000000000000000000000000000000000000000000000000000000000000000000000000000
#01512:00132413
#01515:000013000000000000000000000000130000000000130000
#01518:000000130000000000000000000013000000000000130000
#01517:00132300
#01516:2300001300000000
#0151a:2400001400000000
#0151b:00000013
#00255:0063
#0025a:00440044
#00252:00000034
#01757:63
#01755:0000001300000000
#0175b:00000063000000000000000000000000
#01752:00000053000000000000000000000000
#01758:0000001300000000
#0205b:0000000000630000
#02056:0000000000000014
#02052:0000000000000013
#0335c:5212
#03352:0012
#03358:00220000
#00058:00000053
#0005b:0000000000000023
#00852:5363
#0085b:63
#00857:0000000000230000
#00958:0000000000000000000053000000000000000000000000000000000000230000
#0095b:0000000000000000000000000023000000000000000000000000630000000000
#0105b:00000000006300000000000000000000
#01456:53003363
#01458:00000000000000440000000000000000000000000000004400000000000000000000000000000000000000000000000000000000000000000000000000000000
#0145a:00444400
#01452:0000000000000064
#01855:63000063000000000000000000000000
#01852:0000002300000000000000001300000000000000000000000000000000000000
#01858:00000053000000000000000000000000
#0185b:0000001300000000
#02552:53
#0255b:00630000
#02555:000000000000000000000000000000000013000000000000
#02558:000000000000000000000000000000000013000000000000
#02656:44
#0265b:000000000063
#02652:000000000000530000000000000000000013000000000000
#02657:000000000000000000000000000000000013000000000000
#0285a:1400000000000014
#02852:14343434
#02856:0000000000000014
#02858:000000000000000000000000000000000053000000000000
#0395c:6262
#03952:00620000
#03958:0000000000220000
#0415b:43
#0415a:00430000
#04159:0043
#04158:00000043
#04256:44444500
#04252:0000001c
#0015a:00440044
#00552:14
#0055a:14
#00555:00000013
#00652:14
#0065a:14
#00658:00000013
#00759:00000044000000001400000000000000
#00752:34
#00753:0000003414000000
#01357:13
#01352:1400006400000000
#01356:00631300
#0135a:0014
#01257:00000053
#01252:0013
#0125b:0013
#0125a:0000000000000054
#01955:0000001300130000
#01958:0000001300130000
#01952:16000053
#0195b:00000063
#03452:6212
#0345c:0012
#03456:00220000
#03558:6212
#03552:0012
#0355c:00220000
#03656:5212
#0365c:0012
#03652:00220000
#03756:0012
#03752:52
#0375c:52
#03758:0012
#03857:52520000
#03852:0014
#0385a:0014
#04058:00520000
#04052:52
#04057:00000053
#05356:18
#05358:0000001300130000
#05355:0000001300130000
#0535b:00000063
#05352:00000053
#04854:00000000000000340000000000000000000000000000003400000000000000000000000000000000000000000000000000000000000000000000000000000000
#04852:00343400
#04857:63004353
#0485a:0000000000000054
#05158:0000001300000000
#05155:0000001300000000
#05152:00000000000000000000000000000023000000000000000000000000000000000000000000000000000000000000000000000000000000000000000000000000
#0515b:00000000000000000000000000000023000000000000000000000000000000000000000000000000000000000000000000000000000000000000000000000000
#05855:00000049
#05852:0000000000000039
#0585b:00630000
#05858:00630000
#0595b:53530000
#05958:0053000000440000
#05952:00356363
#05955:0000000000630000
#05956:33
#05954:0034000000000000
#05957:0043
#05959:00000045
#0605b:53530000
#06056:33
#06054:0034000000000000
#06058:0053000000000000
#06052:00350000
#04557:00000000000000000000000000630000
#04558:00000000005300000000000000000000
#0455b:0000000000000000000000000023000000000000000000000000000000000000
#0465b:0013
#04652:0000000013000064
#04656:00000063
#02952:5454
#0295a:00240024
#03052:5454
#03056:54245414
#0305a:00240014
#03252:00340034
#0325a:0044
#03156:54540000
#0315a:0024000000000000
#03152:0000002400000000
#01156:00000000000000000000000000530000
#01155:00000000006300000000000000000000
#01152:0000000000000000000000000023000000000000000000000000000000000000
#0525b:0000001300000000
#05252:0000001300000000
#05255:00000000000000000000000000000023000000000000000000000000000000000000000000000000000000000000000000000000000000000000000000000000
#05258:00000000000000000000000000000023000000000000000000000000000000000000000000000000000000000000000000000000000000000000000000000000
#0215b:00630063
#00352:00340034
#00452:00340034
#00458:0053
#0045a:00000044
#0225b:00630000
#05552:00530000
#05555:00530000
#0555b:00000063
#05558:00000063
#02352:00530053
#02452:00530000
#04355:0000000000000000000063000000000000000000000000000000000000230000
#04352:0000000000000000000000000023000000000000000000000000530000000000
#05052:0000001c
#05452:0000000000530000
#0545b:0000000000000013
#05456:0000000000000014
#06152:63630035
#06155:0063000000000000
#06157:43
#06158:0044000000530000
#0615b:00005353
#06154:0000000000340000
#06156:0033
#06159:00450000
#06252:63630000
#06258:0044000000000000
#06255:0063000000000000
#06257:43
#06259:00450000
#04756:13
#0475a:1400005400000000
#04757:00531300
#04752:0014
#04957:13
#04952:1400006400000000
#04956:00631300
#0495a:0014
#02752:000000000000000000000000000000000054000000000000
#0275a:000000000000000000000000000000000054000000000000
#04452:00000000005300000000000000000000
#05652:00530000
#05655:00530000
#01557:00531300
#0155a:1400005400000000
#01556:13
#01552:0014
#0575b:00630000
#05752:00000053
#05758:00630000
#05755:00000053
#000380:00000013
#0003b0:0000000000000053
#001380:23
#001370:0013
#0013a0:00000000000000000053230000000000
#001360:00000013
#001330:00000000000000000000000000532300
#002350:0013
#002320:00000024
#003360:0013
#003330:00000000000000000053230000000000
#003370:00000013
#0033a0:00000000000000000000000000532300
#004380:0013
#0043a0:00000024
#005350:000000000000130053230000
#005320:0000000000000000000000000000000000530000530000000000000000000000
#006380:0000000000000000000000000000000013000000005300002300000000000000
#0063b0:0000000000000000000000000000000000530000530000000000000000000000
#007380:00000013000000000000000000000000000000000000000000000000000000000000000000000000000000000000000000000000000000000000000000000000
#007390:00000024000000000000000000000000
#007350:00000000000000000000000000000013000000000000000000000000000000000000000000000000000000000000000000000000000000000000000000000000
#007330:0000002400000000
#0073b0:00000000000000000000000000000000000000000000000000000013000000000000000000000000000000000000000000000000000000000000000000000000
#007390:0024
#0083b0:13
#008350:0023000000000000
#008321:13
#008381:0023000000000000
#008321:00001323
#008371:0000000000530000
#009381:00000000001300002300000000000000
#0093b1:0000000000000000000000000053000000000000000000000000000000000000
#0093b1:00000000000000000000000000130000
#009381:0000000000000000000000000000000000000000000000000000000000530000
#0103b1:23
#0103b1:00000000001300000000000000000000
#010371:0023
#011351:00000000001300002300000000000000
#011321:0000000000000000000000000053000000000000000000000000000000000000
#011361:00000000000000000000000000130000
#012321:23
#012351:00000013000000000000000000000000230000000000000000000000000000000000000000000000000000000000000000000000000000000000000000000000
#012380:00000013000000000000000000000000230000000000000000000000000000000000000000000000000000000000000000000000000000000000000000000000
#012320:00000000000000000000000000000000000000130000000000000000000000002300000000000000000000000000000000000000000000000000000000000000
#0123b1:00000000000000000000000000000000000000130000000000000000000000002300000000000000000000000000000000000000000000000000000000000000
#012371:000000000000000000130053
#0123a1:000000000000000000000000000000000000005400540000
#013371:23
#013361:000000130053230000000000
#013321:000000000000005400540000000000000000000000000000
#013321:00000013
#013361:000000000000000000000000000000000000005300230000
#014361:13
#014321:0023000000000000
#014361:0000000000130000230000000000000000000000000000000000000000000000
#014321:0000000000000000001300002300000000000000000000000000000000000000
#014361:0000000000000000000000000013000023000000000000000000000000000000
#014361:000000000000000000130053
#014321:000000000000000000000000000000000000005400540000
#015361:23
#015371:000000130053230000000000
#0153a1:000000000000005400540000000000000000000000000000
#016321:13
#016351:005300230000000000000000000000000000000000000000
#0163b1:00130000
#016381:000000000000005300230000000000000000000000000000
#017371:13
#0173b1:00000033000000000000000000000000
#017351:0000002300000000
#017320:00000013000000000000000000000000
#017380:0000002300000000
#018350:13000033000000000000000000000000
#018320:0000005300000000000000000000000000000000000000000000000000000000
#0183b0:0000002300000000
#018381:00000013000000000000000000000000
#018321:0000002300000000
#0193b1:00130000
#019381:000000000000005300230000000000000000000000000000
#019321:0013
#019351:000000000000000000000000005300230000000000000000
#019321:00000013
#019361:0000000000000024
#0193b0:00000013
#019360:000000000000000000000000000000000000000000000000000000000000000000000000000000000000000000000000000000000000000000000000000000000000000000000000000000000000000000000000000000000000000000000000000000000000000000000000000000000000000000000000000000000000000000000000000000000000000000000000000000000000000000000000000000000000000000000024000000000000000000000000000000000000000000000000
#0203b1:0000000000130000
#020321:0000000000000023
#020360:0000000000140024
#0213b0:00130000
#021370:0000002300000000
#0213b0:00000013
#021360:0000000000000023
#0223b0:00130000
#022350:0000002300000000
#023320:00130000
#023360:0000002300000000
#023320:00000013
#023370:0000000000000023
#024320:00130000
#024380:0000002300000000
#025320:13
#025350:0023000000000000
#0253b0:00130000
#025380:002300
#025350:000000000000000000000000000000130023000000000000
#025381:000000000000000000000000000000130023000000000000
#026321:00130000
#026351:002300
#026371:000000000000000000000000000000130023000000000000
#026320:000000000000000000000000000000130023000000000000
#0263b0:000000000013
#026370:000000000000000000000000000000000000000000000023
#0273a0:000000000000000000000000000000000014000000000000
#027320:0000000000000034
#028320:24
#027321:000000000000000000000000000000000014000000000000
#0273a1:0000000000000034
#0283a1:24
#028381:000000000000000000000000000000000013000000000000
#0283a1:0000000000000024
#029361:14
#030361:34
#0303a1:000000000024000000000000000000000000000000000000
#029320:14
#0293a0:000000000024000000000000000000000000000000000000
#0293a0:00140000
#029320:000000000000000000000024000000000000000000000000
#029320:0014
#0293a0:000000000000000000000000000000000024000000000000
#0293a0:00000014
#029320:000000000000000000000000000000000000000000000024
#030320:14
#030360:000000000024000000000000000000000000000000000000
#0303a0:00140000
#030360:000000000000000000000024000000000000000000000000
#030361:00140000
#030321:000000000000000000000024000000000000000000000000
#030361:0014
#0303a1:00000024
#030320:0014
#030360:00000024
#0333c0:1222
#033380:00520000
#034320:1222
#034360:00520000
#035380:1222
#0353c0:00520000
#036360:1222
#036320:00520000
#037320:12
#037360:0022
#0373c1:12
#037381:0022
#038371:12
#038321:0024
#038370:00120000
#0383a0:0024
#0393c0:12
#039380:0032220000000000
#039321:00120000
#039361:0000003222000000
#0393c0:00001222
#039380:0000000000520000
#040320:12
#040360:0022000000000000
#040380:00120000
#0403c0:0000002200000000
#040370:00000013
#0413b0:23
#043350:00000000001300002300000000000000
#043320:0000000000000000000000000053000000000000000000000000000000000000
#043320:00000000000000000000000000130000
#043350:0000000000000000000000000000000000000000000000000000000000530000
#044320:23
#044320:00000000001300000000000000000000
#044360:0023
#045380:00000000001300002300000000000000
#0453b0:0000000000000000000000000053000000000000000000000000000000000000
#045370:00000000000000000000000000130000
#0463b0:23
#046380:00000013000000000000000000000000230000000000000000000000000000000000000000000000000000000000000000000000000000000000000000000000
#046351:00000013000000000000000000000000230000000000000000000000000000000000000000000000000000000000000000000000000000000000000000000000
#0463b1:00000000000000000000000000000000000000130000000000000000000000002300000000000000000000000000000000000000000000000000000000000000
#046320:00000000000000000000000000000000000000130000000000000000000000002300000000000000000000000000000000000000000000000000000000000000
#046360:000000000000000000130053
#046320:000000000000000000000000000000000000005400540000
#047360:23
#047370:000000130053230000000000
#0473a0:000000000000005400540000000000000000000000000000
#0473b0:00000013
#047370:000000000000000000000000000000000000005300230000
#048370:13
#0483b0:0023000000000000
#048370:0000000000130000230000000000000000000000000000000000000000000000
#0483b0:0000000000000000001300002300000000000000000000000000000000000000
#048370:0000000000000000000000000013000023000000000000000000000000000000
#048370:000000000000000000130053
#0483a0:000000000000000000000000000000000000005400540000
#049370:23
#049360:000000130053230000000000
#049320:000000000000005400540000000000000000000000000000
#051380:00000013000000000000000023000000000000000000000000000000000000000000000000000000000000000000000000000000000000000000000000000000
#051351:00000013000000000000000023000000000000000000000000000000000000000000000000000000000000000000000000000000000000000000000000000000
#0513b1:00000000000000000000000000000013000000000000000000000000000000000000000000000000000000000000000000000000000000000000000000000000
#051381:0000002300000000
#051320:00000000000000000000000000000013000000000000000000000000000000000000000000000000000000000000000000000000000000000000000000000000
#051350:0000002300000000
#0523b0:00000013000000000000000023000000000000000000000000000000000000000000000000000000000000000000000000000000000000000000000000000000
#052321:00000013000000000000000023000000000000000000000000000000000000000000000000000000000000000000000000000000000000000000000000000000
#052381:00000000000000000000000000000013000000000000000000000000000000000000000000000000000000000000000000000000000000000000000000000000
#0523b1:0000002300000000
#052350:00000000000000000000000000000013000000000000000000000000000000000000000000000000000000000000000000000000000000000000000000000000
#052320:0000002300000000
#053320:00130000
#053350:000000000000005300230000000000000000000000000000
#0533b0:0013
#053380:000000000000000000000000005300230000000000000000
#0533b0:00000013
#053360:0000000000000024
#053321:00000013
#053361:000000000000000000000000000000000000000000000000000000000000000000000000000000000000000000000000000000000000000000000000000000000000000000000000000000000000000000000000000000000000000000000000000000000000000000000000000000000000000000000000000000000000000000000000000000000000000000000000000000000000000000000000000000000000000000000024000000000000000000000000000000000000000000000000
#054320:0000000000130000
#0543b0:0000000000000023
#054361:0000000000140024
#055321:00130000
#055361:0000002300000000
#055350:00130000
#055390:0000002300000000
#0553b0:00000013
#055360:0000000000000023
#055381:00000013
#055331:0000000000000023
#056321:00130000
#056381:0000002300000000
#056350:00130000
#0563b0:0000002300000000
#0573b0:00130000
#057370:0000002300000000
#057381:00130000
#057341:0000002300000000
#057321:00000013
#057371:0000000000000023
#057350:00000013
#0573a0:0000000000000023
#0583b0:00130000
#058350:0000002300000000
#058381:00130000
#058321:0000002300000000
#0593b1:13330000
#059381:0033000000000000
#059371:0023
#059320:00001333
#059350:0000000000330000
#060360:23
#0603b1:13330000
#060381:0033000000000000
#060371:0023
#061321:13330000
#061351:0033000000000000
#061361:0023
#0613b0:00001333
#061380:0000000000330000
#062370:23
#062321:13330000
#062351:0033000000000000
#062361:0023
#0079b0:13
#007980:00000023000000000000000000000000000000000000000000000000000000000000000000000000000000000000000000000000000000000000000000000000
#007920:00000013000000000000000000000000
#007950:00000000000000000000000000000023000000000000000000000000000000000000000000000000000000000000000000000000000000000000000000000000
#007980:0000001300000000
#0079b0:00000000000000000000000000000000000000000000000000000023000000000000000000000000000000000000000000000000000000000000000000000000
#0089b0:00000013
#008960:000000000000000000000000000000000000000000000000000000000000000000000000000000000023000000000000
#012920:13
#012950:00000023000000000000000000000000000000000000000000000000000000000000000000000000000000000000000000000000000000000000000000000000
#012980:00130000
#0129b0:00000000000000000000000000000000000000230000000000000000000000000000000000000000000000000000000000000000000000000000000000000000
#012951:00130000
#012921:00000000000000000000000000000000000000230000000000000000000000000000000000000000000000000000000000000000000000000000000000000000
#014921:0013000000000000
#014961:0000000000230000000000000000000000000000000000000000000000000000
#014961:00130000
#014921:0000000000000000002300000000000000000000000000000000000000000000
#014921:0000001300000000
#014961:0000000000000000000000000023000000000000000000000000000000000000
#0249b1:0000000000130000
#024921:0000000000000023
#024920:0000000000130000
#0249b0:0000000000000023
#031960:14542400
#0319a0:0054000000000000
#031920:0000005400000000
#042920:0014
#0429a0:00000024
#0469b0:13
#046980:00000023000000000000000000000000000000000000000000000000000000000000000000000000000000000000000000000000000000000000000000000000
#046950:00130000
#046920:00000000000000000000000000000000000000230000000000000000000000000000000000000000000000000000000000000000000000000000000000000000
#046981:00130000
#0469b1:00000000000000000000000000000000000000230000000000000000000000000000000000000000000000000000000000000000000000000000000000000000
#0489b1:0013000000000000
#048971:0000000000230000000000000000000000000000000000000000000000000000
#048971:00130000
#0489b1:0000000000000000002300000000000000000000000000000000000000000000
#0489b1:0000001300000000
#048971:0000000000000000000000000023000000000000000000000000000000000000
#0519b1:13
#051981:00000023000000000000000000000000000000000000000000000000000000000000000000000000000000000000000000000000000000000000000000000000
#051920:13
#051950:00000023000000000000000000000000000000000000000000000000000000000000000000000000000000000000000000000000000000000000000000000000
#051980:00000013000000000000000000000000
#0519b0:00000000000000000000000000000023000000000000000000000000000000000000000000000000000000000000000000000000000000000000000000000000
#051951:00000013000000000000000000000000
#051921:00000000000000000000000000000023000000000000000000000000000000000000000000000000000000000000000000000000000000000000000000000000
#052981:13
#0529b1:00000023000000000000000000000000000000000000000000000000000000000000000000000000000000000000000000000000000000000000000000000000
#052950:13
#052920:00000023000000000000000000000000000000000000000000000000000000000000000000000000000000000000000000000000000000000000000000000000
#0529b0:00000013000000000000000000000000
#052980:00000000000000000000000000000023000000000000000000000000000000000000000000000000000000000000000000000000000000000000000000000000
#052921:00000013000000000000000000000000
#052951:00000000000000000000000000000023000000000000000000000000000000000000000000000000000000000000000000000000000000000000000000000000
#0569b1:0013
#056971:000000000000000000000000002300000000000000000000
#056960:0013
#056920:000000000000000000000000002300000000000000000000
#056920:00000013
#056960:000000000000000000000000000000000000002300000000
#056971:00000013
#0569b1:000000000000000000000000000000000000002300000000
#060921:0013
#060961:000000000000000000000000002300000000000000000000
#060970:0013
#0609b0:000000000000000000000000002300000000000000000000
#0609b0:00000013
#060970:000000000000000000000000000000000000002300000000
#060961:00000013
#060921:000000000000000000000000000000000000002300000000
#0629b1:0013
#062971:000000000000000000000000002300000000000000000000
#062960:0013
#062920:000000000000000000000000002300000000000000000000
#062920:00000013
#062960:000000000000000000000000000000000000002300000000
#062971:00000013
#0629b1:000000000000000000000000000000000000002300000000
