This file was generated by Ched 2.7.0.0.
#TITLE ""
#ARTIST ""
#DESIGNER ""
#DIFFICULTY 0
#PLAYLEVEL
#SONGID ""
#WAVE ""
#WAVEOFFSET 0
#JACKET ""
#REQUEST "ticks_per_beat 480"
#00002: 4
#BPM01: 102
#BPM02: 94
#BPM03: 85
#BPM04: 80
#BPM05: 90
#BPM06: 76
#BPM07: 81
#BPM08: 92
#BPM09: 95
#BPM0A: 103
#BPM0B: 97
#BPM0C: 104
#BPM0D: 106
#BPM0E: 98
#BPM0F: 101.099
#BPM0G: 98.691
#BPM0H: 100.519
#BPM0I: 101.738
#BPM0J: 101
#BPM0K: 100.055
#BPM0L: 93.055
#BPM0M: 87.055
#BPM0N: 81.055
#BPM0O: 46
#BPM0P: 78
#BPM0Q: 96
#BPM0R: 99
#BPM0S: 107
#00008: 01
#01808: 0C0001000D000E0A
#02208: 010E00000R090R00
#02308: 0B0S0100
#01608: 0000020003040506
#02108: 0P030Q000E000R00
#01708: 0700080009000A0B
#01908: 0F0G0H0I0A000J00
#02008: 0C000J0K0L0M0N0O
#TIL00: ""
#VOLUME: ""
#HISPEED 00
#MEASUREHS 00
#0001a:00000014
#00012:000000000014
#0011a:12
#00116:12
#00114:0012000000001200
#00118:0012000000001200
#0011b:0000120000120000
#00216:12
#0021a:12
#00213:00120000
#00217:00121200
#00314:12000000000000120000000000003200
#00318:12000000000000120000000000003200
#0031b:00120000
#00317:00120000
#00316:0000000000120000
#00319:0000000000000000000000000000000000120000000000003200000000000000
#00315:0000000000000000000000000000000000120000000000003200000000000000
#0031a:0000000000120000
#00416:00120000
#00413:0012
#00418:00120000
#0041b:0012
#00518:1300000000130000
#00515:0013000013000000
#00512:00140024
#0051a:00240014
#00510:41
#00614:13
#00619:13
#00612:00241300
#00617:0013
#0061a:00240000
#0071b:1300000000000013
#00716:13
#00715:0000000013000000000000000000000000000000000000000000000000000013
#0071a:0013000000000000
#00719:00130013
#00714:00130013
#00712:0000000000130000
#00717:0000000000130000
#00812:0013000013000000
#00816:00130000
#00817:0013
#0081b:0033130000000000
#00912:13001323
#00917:13001313
#00916:0000130000130000
#0091b:0000230000130000
#01012:13000000000000000013000000000000
#01015:0000001300000000
#0101b:00000000000000000013000000000000
#01018:0000001300000000
#0111b:1323
#01116:13
#01114:0013000000000000
#01117:00130000
#01119:0000001300000000
#01112:00231300
#01118:0000000000330000
#01115:0000000000330000
#01212:0013001300000013
#0121b:0013001300130000
#01219:00130000
#01214:00130000
#01215:00001313
#01218:00001313
#01313:13
#01314:0013000000000000
#01315:00130000
#01316:0000001300130000
#0131b:0000000000130000
#01312:00000013
#01317:23000013
#01318:0023000000000000
#01319:00230000
#0131a:0000002300000000
#01310:41
#0141a:0000001400001400
#01416:0014
#01412:0000000000140000
#01418:0000000000000013
#01415:000000000013
#01515:000000000000000000000000000000000000000013000013
#0151b:130000000000000033000033000000000000130000000000
#01517:0013000000130000
#01516:0000001300000000
#01518:0000000000000013
#01512:000033000033000000000000000033000033000000000000
#01717:12
#0171b:12
#0171a:00120000
#01716:00120000
#01719:0012
#01715:0012
#01714:00000012
#01718:00000012
#01817:12
#01813:12
#01814:00120000
#01818:00120000
#01815:0012
#01819:0012
#0181a:00000012
#01816:00000012
#01917:12
#0191b:12
#01916:00520000000000000000000000000000120000000000000000000000000000000000000000000000000000000000000000000000000000000000000000000000
#0191a:00120000
#01915:00005200000000000000000000000000005200000000000000000000000000001200000000000000000000000000000000000000000000000000000000000000
#01919:0012
#01914:00000000000000000000000000000000000052000000000000000000000000000052000000000000000000000000000012000000000000000000000000000000
#01918:00000012
#01910:41
#01913:00000000000000000000000000000000000000000000000000000000000000000000520000000000000000000000000000520000000000000000000000000000
#01912:0000000000000000000000000000000000000000000000000052000000000000
#02017:12
#02013:12
#02018:00520000000000000000000000000000120000000000000000000000000000000000000000000000000000000000000000000000000000000000000000000000
#02014:00120000
#02019:00005200000000000000000000000000005200000000000000000000000000001200000000000000000000000000000000000000000000000000000000000000
#02015:0012
#0201a:00000000000000000000000000000000000052000000000000000000000000000052000000000000000000000000000012000000000000000000000000000000
#0201b:00000000000000000000000000000000000000000000000000000000000000000000520000000000000000000000000000520000000000000000000000000000
#0201c:0000000000000000000000000000000000000000000000000052000000000000
#02219:1212520012000000
#02215:5200121252000000
#0221b:0000000000000000005200000000000000000000000000001200000000000000
#02214:00520000000000000000000000000000000000000000000000000000000000000052000000000000000000000000000000000000000000000000000000000000
#02213:0052000000000000000000000000000000520000000000000000000000000000
#02212:00000052000000000000000000000000000000000000000000000000000000000000005200000000000000000000000000000000000000000000000000000000
#0221a:00000000000000000000000000000000005200000000000000000000000000000000000000000000000000000000000000000000000000000000000000000000
#0221c:00000000000000000000000000000000000000520000000000000000000000000000000000000000000000000000000000000000000000000000000000000000
#0231b:1212121200000000
#02316:00120000
#02313:0000000012121212
#02318:00001212
#0251b:0000000013131300
#02516:0000000013131300
#02510:41
#02612:0000000013131300
#02617:0000000013131300
#0301b:00000013
#03012:00001313
#03014:0000000000000013
#03019:0000000000000013
#03016:0014001400000000
#03114:0013001300000000
#03119:0000000000130013
#03112:2323
#03116:00230000
#0311b:23
#03117:00000023
#03217:00130000
#03216:0013
#0321b:00000013
#0321a:24
#03213:00240000
#03219:0024
#03212:00000024
#03210:41
#03316:0013000000000000
#03317:0000001300000000
#03312:23001424
#0331a:00000014
#03318:240000000000000000000000000000000000000000000000000000003300000033000000000000003300000033000000000000000000000000000000000000000000000000000000000000540000000000000000000000000000000000000000
#0331b:00230000
#03315:003333003333000000000000000000000000000000000000
#03313:00000000000000000000000000000000000000000000000000000000000000000054000000000000000000000000000000000000000000000000000000000000
#03314:0000000000000000000000000000000000540000000000000000000000000000
#03319:00000000000000000000000000000000000000000000000000000000000000000000000000000000000000000000000000540000000000000000000000000000
#03412:1414
#0341a:00140024
#03415:0000000000000015
#03416:240000000000240000340000240000340000243434003434
#03512:14001426
#0351a:00140014
#03514:00260000
#03516:0026
#03615:003636163636003636163636000000000000000000000000
#03612:26001626
#03618:26260016
#03613:00000000000000000000000000000000000000000000000000000000000000000056000000000000000000000000000000000000000000000000000000000000
#03614:0000000000000000000000000000000000560000000000000000000000000000
#03617:00000000000000000000000000000000000000000000000000000000000000000000000000000000000000000000000000560000000000000000000000000000
#03616:0000000000000000000000000000000000000000000000000056000000000000
#03716:0000003400140000
#0371f:11
#03712:2424
#03718:26
#0371a:00240000
#03719:00000025
#03818:00000013
#0381a:00130000
#03819:0013
#0381b:13
#03816:23
#03815:00230000
#03814:0023
#03813:00000023
#03917:13000013
#03916:00130000
#03912:23002313
#04019:13131300
#04014:13131300
#04016:0013000000000000
#0401b:0013000000130000
#04017:0000001300000000
#04012:0000001300130000
#04018:00000013
#0401a:0000000000000013
#04015:00000013
#04013:0000000000000013
#04115:13131300
#04118:13000000130000001300000014000012
#0411b:0013000000000000
#04116:00001300000000000000000000000012
#04112:0000001300140000
#04117:0000001300000000
#0411a:0000000000140000
#04114:00000014
#0421b:0000131323000000
#04215:0000000013132300
#04218:0000000000001313
#04212:00230000
#0421f:21
#04312:14002424
#04315:003434143434000000000000000000000000000000000000
#0431a:00140024
#04317:000000000000003434143434000000000000000000000000
#04318:23
#04316:0000000000240000
#04310:41
#04417:0014000000000000
#0441a:1400140014142414
#04415:0000001400001400
#04412:24241400
#04512:1414241424000000
#0451a:1424
#04517:00140000
#04518:00000013
#04515:0000000000000013
#04619:0013000000130000
#04614:0000001300000013
#04616:0013
#04617:00130013
#04612:13230023
#0461b:1323
#04716:13
#04714:00130013
#04712:0013
#04713:0000000000130000
#04715:0000000000000013
#0471b:23
#0471a:0023000000000000
#04719:00230023
#04718:0000002300000000
#04717:0023
#04816:1313
#04814:0013001300000000
#04812:00130000
#0481b:2323
#04819:0023002300000000
#04817:00230000
#05012:14
#0501a:24
#02712:0013
#02717:0013
#02719:0000000000130000
#0271b:00000013
#02714:0000000000130000
#02716:00000013
#0281b:0013
#02816:0013
#02814:0000000000130000
#02819:0000000000130000
#02817:00000023
#02812:00000023
#02917:13
#0291b:0013000013000000
#02916:00130000
#02912:0000001300000000
#02918:0000000000130000
#02915:0000000000000013
#0161a:24242400
#0491b:0023
#04917:23
#02412:00000052000000000000000000000000000000000000000000000000000000000000000000000000240000000000000000000000000000000000000000000000
#02416:00000024
#0241a:00520000000000000000000000000000000000000000000000000000000000000000000000000000000000000000000000000000000000002400000000000000
#0241b:0052000000000000000000000000000000000000000000000000000000000000
#02419:52
#0241c:00000052000000000000000000000000000000000000000000000000000000000000000000000000000000000000000000000000000000000000000000000000
#02414:00520000000000000000000000000000000000000000000000000000000000000000000000000000000000000000000000000000000000000000000000000000
#02413:0052000000000000000000000000000000000000000000000000000000000000
#02415:52
#02119:00005200000000000000000000000000005200000000000000000000000000000000005200000000000000000000000000005200000000000000000000000000
#02118:00000052000000000000000000000000000052000000000000000000000000000000000000000000000000000000000000000052000000000000000000000000
#0211a:00520000000000000000000000000000520000000000000000000000000000000000520000000000000000000000000000520000000000000000000000000000
#02117:00000000000000000000000000000000000000520000000000000000000000005200000000000000000000000000000000000000000000000000000000000000
#02115:00520000000000000000000000000000520000000000000000000000000000000000520000000000000000000000000000520000000000000000000000000000
#02115:00520000000000000000000000000000000000000000000000000000000000000000000000000000000000000000000000000000000000000000000000000000
#02114:00005200000000000000000000000000005200000000000000000000000000000000005200000000000000000000000000005200000000000000000000000000
#02114:0052000000000000000000000000000000000000000000000000000000000000
#02113:00000052000000000000000000000000000052000000000000000000000000000000000000000000000000000000000000000052000000000000000000000000
#02113:00000052000000000000000000000000000000000000000000000000000000000000000000000000000000000000000000000000000000000000000000000000
#02112:00000000000000000000000000000000000000520000000000000000000000000000000000000000000000000000000000000000000000000000000000000000
#02116:52000000000000000000000000000000000000000000000000000000000000000052000000000000000000000000000052000000000000000000000000000000
#02116:52
#0211b:52000000000000000000000000000000000000000000000000000000000000000052000000000000000000000000000052000000000000000000000000000000
#0211c:0052
#0025b:00000012
#00358:62000000000000220000000000000000
#0035b:00620000
#00357:00620000
#00354:00000000000000220000000000000000
#00355:0000000000000000000000000000000000620000000000000000000000000000
#00359:0000000000000000000000000000000000620000000000000000000000000000
#0035a:0000000000220000
#00356:0000000000220000
#00456:00620000
#00453:0022
#00458:00520000
#0045b:0022
#00652:0063
#00657:0063
#0065b:00000013
#00656:00000013
#00759:00630000
#00754:00630000
#00856:00630000
#00857:0023
#0085b:00630000
#00852:0023
#01055:0000006300000000
#01052:00000000000000000023000000000000
#0105b:00000000000000000023000000000000
#01058:0000005300000000
#01158:0000000000000013
#01155:0000000000000013
#01152:0063
#0115b:0063
#01255:0013
#01258:00000013
#02356:12120000
#02358:00001212
#0255b:00000013
#02556:00000013
#02657:00000013
#02652:00000013
#0325a:14
#03253:00140000
#03259:0014
#03252:00000014
#03358:44
#03352:63340034
#03356:0023000000000000
#03357:0000002300000000
#0335b:00530000
#0335a:0044
#03456:44344434
#03452:6464
#0345a:00540064
#03455:0000000000000025
#03558:46
#03554:00360000
#03556:0046
#03552:00000036
#03655:0026002600000000
#03658:46564600
#03652:66360036
#03758:46
#03752:64006435
#03755:00350000
#0375a:00540000
#03756:0000000045240000
#03759:00000045
#03956:00130000
#0395b:0013
#03952:00000063
#03957:00000063
#04054:63535300
#04059:63536300
#0405b:0023000000230000
#04056:0023000000000000
#04057:0000002300000000
#04052:0000002300230000
#04058:00000063
#0405a:0000000000000023
#04055:00000053
#04053:0000000000000023
#04155:63636300
#04158:63000000630000006300000064000022
#0415b:0023000000000000
#04156:00002300000000000000000000000022
#04152:0000002300240000
#04157:0000002300000000
#0415a:0000000000240000
#04154:00000064
#04252:36
#04258:46
#04352:64
#04355:0024000000000000
#0435a:00540000
#04357:0000002400000000
#04452:1414
#0445a:00140000
#04455:00000014
#0455a:1414
#04557:00140000
#04552:0014
#04657:00130013
#04656:0013
#04856:0013
#0485b:0013
#0275b:00000013
#02756:00000013
#03052:0013
#0305b:0013
#02857:00000013
#02852:00000013
#001370:0000120000220000
#0023b0:00001222
#003380:12000000000000520000000000003200
#0033b0:00320000
#003390:0000000000000000000000000000000000520000000000003200000000000000
#0033a0:0000000000320000
#004370:22
#003371:00120000
#003341:00000000000000520000000000003200
#003351:0000000000000000000000000000000000520000000000003200000000000000
#003361:0000000000320000
#004331:22
#004361:00120022
#004331:0052
#004380:00120022
#0043b0:0052
#006320:0013
#006360:00000023
#006371:0013
#0063b1:00000023
#007391:00130000
#007371:0023
#007340:00130000
#007320:0023
#008380:13
#0083b0:0033330000002300
#008370:0053
#008361:00130023
#008321:0053
#0103b1:13
#010381:0023000000000000
#010350:0013000000000000
#010320:00230000
#0103b1:00000000130000000053000000000000
#010381:0000003300002300
#010350:0000001300002300
#010320:00000000000000000053000000000000
#011320:0013
#011350:0000000000333323
#0113b1:0013
#011381:0000000000333323
#0133b1:0000000000000013
#0143b1:23
#014350:1323000000000000
#014381:0013230000000000
#014320:0000132300000000
#015350:13230000
#015320:000033330033000000000000000000000000000000000000
#015381:00132300
#0153b1:000000000000000033330033000000000000000000000000
#015350:00001323
#015320:000000000000000000000000000033330033000000000000
#0163a0:0000000000000000000000000000000014545454545454542400000000000000
#016390:00000000000000000000000000000000000000000000000000000000000000000054005400540054005400540054005400000000000000000000000000000000
#020360:00000012
#021360:22
#022360:00000012
#023360:22
#025320:1323000000000000
#025371:1323000000000000
#025341:0000132300000000
#025390:0000132300000000
#0263b0:1323000000000000
#026361:1323000000000000
#026391:0000132300000000
#026340:0000132300000000
#027320:13
#027360:0023000000000000
#027371:13
#0273b1:0023000000000000
#0273b1:00130000
#027371:0000002300000000
#027360:00130000
#027320:0000002300000000
#0283b0:13
#028370:0023000000000000
#028361:13
#028321:0023000000000000
#028321:00130000
#028361:0000002300000000
#028370:00130000
#0283b0:0000002300000000
#029320:13
#029360:0023000000000000
#0293b0:00130000
#029370:0000002300000000
#029320:00001323
#0293b1:00000013
#0303b1:23
#030320:13230000
#0303b1:00132300
#0313b1:1323
#031320:0013
#032320:23
#033320:13240000
#033350:003333003333000000000000000000000000000000000000
#033360:0033000000000000
#0333b1:00130000
#033381:000000000000003333003333000000000000000000000000
#033371:0000003300000000
#0333a1:0024
#034321:14
#034361:00240000
#0343a0:00140000
#034360:0000003424000000
#034321:0014
#034361:0000000000342400
#0343a0:00000014
#034360:000000000000000000000000000000000000003434003434
#034350:0000000000000035
#035380:26
#036320:16260000
#036350:003636363636000000000000000000000000000000000000
#036381:00162600
#036351:000000000000003636363636000000000000000000000000
#037321:14
#037351:00250000
#0373a0:00140000
#037360:0000003425000000
#037321:00001425
#037361:0000000000340000
#0393b1:00132300
#039320:00001353
#039340:000000000053
#040340:53535300
#040360:0053000000000000
#040320:0000005300530000
#040350:00000053
#040330:0000000000000053
#041350:53535300
#041360:00005300000000000000000000005252
#041320:0000005300540000
#041340:00000054
#042320:26
#039371:00000013
#039391:000000000053
#040391:53535300
#0403b1:0053000000530000
#040371:0000005300000000
#040381:00000053
#0403a1:0000000000000053
#041381:53000000530000005300000054005252
#0413b1:0053000000000000
#041371:0000005300000000
#0413a1:0000000000540000
#042381:26
#043321:14240000
#043351:003434343434000000000000000000000000000000000000
#0433a0:00142400
#043370:000000000000003434343434000000000000000000000000
#049320:13230000
#049371:13230000
#049361:00001323
#0493b0:00001323
#019970:12
#019950:0022000000000000000000000000000000000000000000000000000000000000
#019960:00120000
#019940:0000000000000000002200000000000000000000000000000000000000000000
#019950:0012
#019930:0000000000000000000000000000000000220000000000000000000000000000
#019940:00000012
#019920:0000000000000000000000000000000000000000000000000022000000000000
#020970:12
#020990:0022000000000000000000000000000000000000000000000000000000000000
#020980:00120000
#0209a0:0000000000000000002200000000000000000000000000000000000000000000
#020990:0012
#0209b0:0000000000000000000000000000000000220000000000000000000000000000
#0209a0:00000012
#0209c0:0000000000000000000000000000000000000000000000000022000000000000
#021960:12
#021930:00000022000000000000000000000000000000000000000000000000000000000000000000000000000000000000000000000000000000000000000000000000
#021961:12
#021931:00000022000000000000000000000000000000000000000000000000000000000000000000000000000000000000000000000000000000000000000000000000
#0219b2:12
#021982:00000022000000000000000000000000000000000000000000000000000000000000000000000000000000000000000000000000000000000000000000000000
#0219a1:00120000
#021971:00000000000000000000000000000000000000220000000000000000000000000000000000000000000000000000000000000000000000000000000000000000
#021952:00120000
#021922:00000000000000000000000000000000000000220000000000000000000000000000000000000000000000000000000000000000000000000000000000000000
#021972:0012
#021942:00000000000000000000000000000000000000000000000000000000000000000000002200000000000000000000000000000000000000000000000000000000
#0219c1:0012
#021991:00000000000000000000000000000000000000000000000000000000000000000000002200000000000000000000000000000000000000000000000000000000
#021961:00000012
#021931:00000000000000000000000000000000000000000000000000000000000000000000000000000000000000000000000000000022000000000000000000000000
#0219b2:00000012
#021982:00000000000000000000000000000000000000000000000000000000000000000000000000000000000000000000000000000022000000000000000000000000
#022952:12
#022922:00000022000000000000000000000000000000000000000000000000000000000000000000000000000000000000000000000000000000000000000000000000
#022992:00120000
#0229c2:00000000000000000000000000000000000000220000000000000000000000000000000000000000000000000000000000000000000000000000000000000000
#022952:0012
#022922:00000000000000000000000000000000000000000000000000000000000000000000002200000000000000000000000000000000000000000000000000000000
#024992:12
#0249c2:00000022000000000000000000000000000000000000000000000000000000000000000000000000000000000000000000000000000000000000000000000000
#024951:12
#024921:00000022000000000000000000000000000000000000000000000000000000000000000000000000000000000000000000000000000000000000000000000000
#033921:0014
#033941:0000000000000000000000000000000000240000000000000000000000000000
#0339a1:00000014
#033981:0000000000000000000000000000000000000000000000000024000000000000
#036921:0016
#036941:0000000000000000000000000000000000260000000000000000000000000000
#036981:00000016
#036961:0000000000000000000000000000000000000000000000000026000000000000
