This file was generated by Ched 2.7.0.0.
#TITLE ""
#ARTIST ""
#DESIGNER ""
#DIFFICULTY 0
#PLAYLEVEL
#SONGID ""
#WAVE ""
#WAVEOFFSET 0
#JACKET ""
#REQUEST "ticks_per_beat 480"
#00002: 4
#BPM01: 102
#BPM02: 94
#BPM03: 85
#BPM04: 80
#BPM05: 90
#BPM06: 76
#BPM07: 81
#BPM08: 92
#BPM09: 95
#BPM0A: 103
#BPM0B: 97
#BPM0C: 104
#BPM0D: 106
#BPM0E: 98
#BPM0F: 101.099
#BPM0G: 98.691
#BPM0H: 100.519
#BPM0I: 101.738
#BPM0J: 101
#BPM0K: 100.055
#BPM0L: 93.055
#BPM0M: 87.055
#BPM0N: 81.055
#BPM0O: 46
#BPM0P: 78
#BPM0Q: 96
#BPM0R: 99
#BPM0S: 107
#00008: 01
#01808: 0C0001000D000E0A
#02208: 010E00000R090R00
#02308: 0B0S0100
#01608: 0000020003040506
#02108: 0P030Q000E000R00
#01708: 0700080009000A0B
#01908: 0F0G0H0I0A000J00
#02008: 0C000J0K0L0M0N0O
#TIL00: ""
#VOLUME: ""
#HISPEED 00
#MEASUREHS 00
#0001a:00000014
#00012:00000014
#05012:14
#0501a:24
#00118:12000012
#00116:0012000000000000
#0011a:00120000
#00114:0000000000120000
#00216:12
#0021a:0012
#00316:0000000000000000001200000000000000000000000000000000000012000000
#00314:12
#00318:00000012
#0041a:12
#00414:0012000000000000
#00418:00120000
#00515:1300000000130000
#00518:0013000013000000
#00512:00230000
#0051b:00000023
#00510:41
#00614:13
#00619:13
#00618:0000001300000000
#00615:0013
#00612:00230000
#00718:1313000000130000
#00715:00130013
#0071b:0000000000000013
#00815:1313000000000000
#00818:00130000
#00912:13
#00915:0013000000130000
#00914:00131300
#00913:0000001300000000
#0101b:13
#01018:0013000000000000
#01015:00130000
#01012:0000001300000000
#01212:0013000000000000
#01218:00130000
#01215:0000001300000000
#0121b:0000000000330000
#01318:0000230000130000
#01315:0023000000001300
#0131b:0000002300000013
#01312:23
#01310:41
#01412:1313000000001300
#0141b:0000131300001300
#01415:0013
#01418:0000000000130000
#01515:1300000000130000
#01512:00130000
#01518:0013000013000000
#0151b:00000013
#02415:0000000000130013
#02418:00000013
#02414:53
#02419:53
#02518:0000000000130000
#02515:000000000000000000000000000000000013000000000000
#0251a:24000014
#02516:00240000
#02512:0024
#02510:41
#02615:0000000000130000
#02618:000000000000000000000000000000000013000000000000
#02612:24000014
#02616:00240000
#0261a:0024
#02712:0014000024000000
#0271a:2400001400000000
#02715:000000000000000000000000000000000013000000000000
#02718:0000000000131400
#02716:00240000
#0281a:0014000024000000
#02812:2400001400000000
#02818:000000000000000000000000000000000013000000000000
#02815:0000000000130000
#02816:00240000
#02814:00000024
#0291b:13
#02915:0013000000001313
#02918:0000131300130000
#02912:0013
#0301a:14
#03018:000000140000000000000000000000000000130000000013
#03016:00140000
#03014:0000001400000000
#03012:0014
#03015:0000000000000013
#03112:1313
#03115:0013000000130000
#03118:00130013
#0311b:0000001300000013
#03218:00162600
#03216:0000001600000000
#03212:26000016
#03214:0000000000000016
#03210:41
#03318:00162600
#03316:0000001600000000
#03312:26000026
#03412:0000001600002600
#03415:0016
#03418:0000000000160000
#03512:00162600
#03514:0000001600000000
#03518:26000016
#03516:0000000000000016
#03612:00162600
#03614:0000001600000000
#03618:26000026
#03718:0000001600002600
#03715:0016
#03712:0000000000160000
#0371f:11
#03812:1a181614
#03912:12
#03915:0023
#04015:13001313
#04018:13001313
#04013:0000130000130000
#0401a:0000130000130000
#04112:13001313
#0411b:13001313
#04115:0000130000130013
#04118:0000130000130013
#04218:00131415
#04215:00230000
#04213:00000025
#04214:0024
#0421f:21
#0441b:0013000000000000
#04418:0000130000130013
#04415:0000001300000000
#04412:00001313
#04515:1300130013000013
#0451b:0013001300000000
#04518:000000000000000000000000000000000000130000000013
#04612:13
#04615:0013000000000013
#04618:00130013
#0461b:0000001300130000
#04613:0014
#04712:0000000013001313
#04718:0000000000130000
#0471b:2300232300000000
#04715:0023000000000000
#04815:0013001300000000
#04812:0014
#04818:23230000
#0481a:0024
#04916:0013
#04912:13
#0491b:0023
#04917:23
#0111b:23
#01616:24
#01614:00240000
#01612:0024
#04312:26
#04315:00000023
#04310:41
#02019:0000000000330000
#0201b:00000053
#01910:41
#01812:00000053
#02115:53
#02113:00530000000000000000000000000000000000000000000000000000000000000000000000000000000000000000000000000000000000000000000000000000
#02118:00530000
#0211a:00000000000000000000000000000000005300000000000000000000000000000000000000000000000000000000000000000000000000000000000000000000
#02112:0053
#02114:00000000000000000000000000000000000000000000000000000000000000000053000000000000000000000000000000000000000000000000000000000000
#0211b:00000053
#02119:00000000000000000000000000000000000000000000000000000000000000000000000000000000000000000000000000530000000000000000000000000000
#02215:53
#02213:00530000000000000000000000000000000000000000000000000000000000000000000000000000000000000000000000000000000000000000000000000000
#02218:00530000
#0221a:00000000000000000000000000000000005300000000000000000000000000000000000000000000000000000000000000000000000000000000000000000000
#00258:00000012
#0025a:0062
#00356:0000000000000000006200000000000000000000000000000000000000000000
#00354:62
#00458:00620000
#00655:0063
#00652:00000013
#00755:00630000
#00858:00530000
#00952:63000033
#00955:0023000000230000
#00954:00636300
#00953:0000002300000000
#01052:0000006300000000
#01158:0000000000000013
#01155:0000000000000013
#0125b:00000013
#01552:00130000
#0155b:00000013
#02252:00000013
#0225b:00000013
#0255a:00000014
#02652:00000014
#02758:00000014
#03052:0014
#03252:16000056
#03258:00661600
#03256:0000002600000000
#03254:0000000000000026
#03352:16000016
#03358:00661600
#03356:0000002600000000
#03552:00561600
#03554:0000002600000000
#03558:16000066
#03556:0000000000000026
#03652:00561600
#03654:0000002600000000
#03658:16000016
#04055:63006363
#04058:63005363
#04053:0000630000230000
#0405a:0000630000230000
#04152:63005353
#0415b:53006363
#04155:0000630000230023
#04158:0000630000230023
#04252:34
#0425a:44
#04555:0013
#0485a:0014
#04852:0014
#02854:00000014
#04455:13
#03758:00000016
#03452:00000016
#0023a0:00123200
#002380:00000022
#003340:1200000000220000
#003360:0000000000000000003200000000000000000000000000000000000000000000
#004380:00120000
#0043b0:00000022
#006350:0013
#006320:00000023
#007350:00130000
#007320:0023
#008380:00130000
#0083b0:00003323
#008321:00001323
#009321:13000023
#009351:0053000000530000
#009341:00333300
#009331:0000005300000000
#010321:0000001300000000
#010351:00000023
#0113b1:13
#011381:0000330000000023
#011320:0013
#011350:0000000000003323
#012380:0013
#0123b0:0000000000332300
#016320:00001433
#017320:3333
#017350:00330000
#017340:0000000000330000
#017360:00000033
#018360:3333
#018330:00330000
#018340:0000000000330000
#018320:00000023
#0193b0:1333
#019380:00330000
#019390:0000000000330000
#019370:00000033
#020370:3333
#0203a0:00330000
#020390:0000000000330000
#0203b0:00000023
#022320:00001323
#0223b1:00001323
#023391:1333
#0233b1:00330000
#023371:00000033
#024391:23
#023340:1333
#023360:00330000
#023320:00000033
#024340:23
#032380:00162600
#032360:0000005600000000
#032320:00000016
#032340:0000000000000056
#033320:26
#033380:00162600
#033360:0000005600000000
#034380:16260000
#035320:00162600
#035340:0000005600000000
#035380:00000016
#035360:0000000000000056
#036380:26
#036320:00162600
#036340:0000005600000000
#037320:16260000
#039380:00130000
#040380:53005353
#0403a0:0000530000530000
#0413b0:53005353
#041380:0000530000530053
#0423a0:24
#039351:0013
#040351:53005353
#040331:0000530000530000
#041321:53005353
#041351:0000530000530053
#042321:24
#043381:163636363636260000000000000000000000000000000000
#043330:000000000000153535353535250000000000000000000000
#043381:000000000000000000000000143434343434240000000000
#043350:00000013
#044350:23
#021950:13
#021930:00230000000000000000000000000000000000000000000000000000000000000000000000000000000000000000000000000000000000000000000000000000
#021980:00130000
#0219a0:00000000000000000000000000000000002300000000000000000000000000000000000000000000000000000000000000000000000000000000000000000000
#021920:0013
#021940:00000000000000000000000000000000000000000000000000000000000000000023000000000000000000000000000000000000000000000000000000000000
#0219b0:00000013
#021990:00000000000000000000000000000000000000000000000000000000000000000000000000000000000000000000000000230000000000000000000000000000
#022950:13
#022930:00230000000000000000000000000000000000000000000000000000000000000000000000000000000000000000000000000000000000000000000000000000
#022980:00130000
#0229a0:00000000000000000000000000000000002300000000000000000000000000000000000000000000000000000000000000000000000000000000000000000000
