This file was generated by Ched 2.7.0.0.
#TITLE ""
#ARTIST ""
#DESIGNER ""
#DIFFICULTY 0
#PLAYLEVEL
#SONGID ""
#WAVE ""
#WAVEOFFSET 0
#JACKET ""
#REQUEST "ticks_per_beat 480"
#00002: 4
#BPM01: 116
#00008: 01
#TIL00: ""
#VOLUME: ""
#HISPEED 00
#MEASUREHS 00
#0011a:14
#00214:14
#00318:14
#00412:14
#0131a:14
#01414:14
#01712:14
#01818:14
#02112:0016
#02118:26
#02110:41
#02312:16
#02318:0016
#02412:16
#02418:0016
#02512:16
#02518:0016
#02718:16
#02712:0016
#02918:0016
#02912:26
#02910:41
#03118:16
#03112:0016
#03218:16
#03212:0016
#03318:16
#03312:0016
#03512:16
#03518:0016
#03812:16
#03818:0016
#03912:16
#03918:0016
#04012:16
#05118:16
#05112:0016
#05218:16
#05212:0016
#05318:16
#05312:0016
#05512:16
#05518:0016
#05712:0016
#05718:26
#05912:16
#05918:0016
#06012:16
#06018:0016
#06112:16
#06118:0016
#06318:16
#06312:0016
#0411f:11
#03718:0026
#03710:41
#0491a:24
#04912:24
#0501f:21
#05010:0041
#00510:41
#01210:41
#0053a0:14
#0063a0:24
#007340:14
#008340:24
#009380:14
#010380:24
#011320:14
#012320:24
#0153a0:14
#0163a0:24
#019320:14
#020320:24
#022380:1626
#026320:1626
#028380:1626
#030320:1626
#034380:1626
#036320:16363636
#037320:26
#0413a0:14
#042380:24
#043320:14
#044340:24
#045380:14
#0463a0:24
#047340:14
#048320:24
#050320:1626
#054380:1626
#056320:1626
#058380:1626
#062320:1626
#064380:16363636
#065380:26
