This file was generated by Ched 2.7.0.0.
#TITLE ""
#ARTIST ""
#DESIGNER ""
#DIFFICULTY 0
#PLAYLEVEL
#SONGID ""
#WAVE ""
#WAVEOFFSET 0
#JACKET ""
#REQUEST "ticks_per_beat 480"
#00002: 4
#BPM01: 116
#00008: 01
#TIL00: ""
#VOLUME: ""
#HISPEED 00
#MEASUREHS 00
#00115:0000130000130000
#00118:00000013
#00112:0000000013000013
#0011b:00130000
#0021b:13
#00218:000000000013000000000000130000000000000000000000
#00215:0000000000130013
#00212:00000013
#00318:00130013
#00315:0000000000130000
#0031b:0000000000000013
#00312:0013
#00518:0013000000000000
#00515:00131300
#0051b:0000001300000000
#00512:13000000000000000000001300000000
#00510:41
#00718:0013000013001300
#00715:00130000
#00712:13
#0071b:0000001300130013
#0101a:1414141400000000
#01019:0014001400140014001400140014001400000000000000000000000000000000
#01018:000000140000000000140000000000140000000000140000000000000000000000000000000000000000000000002300
#01015:00000023
#0111b:0013000000000000
#01115:230000000000130000000000000000000000000000000023
#01118:0000001300002300
#01112:0013
#01218:23130013
#01218:00000013
#01215:0000001300000013
#01212:0013000000130000
#0121b:0013
#01210:41
#01915:0000130000130013
#01918:13001323
#01912:2323
#0191b:00230000
#02118:000000000013000000000000000000000000000000130000
#02115:00130000
#0211b:0000001300000000
#02112:2413
#02110:41
#02215:1313
#0221b:0000001300000013
#02218:0000000000130000
#02212:00000013
#0231b:0000001313000000
#02312:1300000000000013
#02415:0013000000000000
#0241b:0000130000130013
#02412:0000001300000000
#02418:13001313
#02419:000000000000000000000000000000000033000000000033
#0241a:000000000000003300003300
#02512:0013000000000000
#02515:0000130000000013
#02518:0000001300000000
#0251b:0013
#0261b:13
#02618:000000130000000000000000000013000000000000000000
#02615:0000130000000013
#02715:0000001300000000
#0271b:130000000000000000000000000000330013000000000000
#02718:000000130033
#02815:000000000000000000000013000000000000000000000000
#02812:00130000
#0361b:00130000
#03615:0000001300001300
#03618:0013
#03718:1300000000240000
#03712:0024
#03714:00000024
#0371a:0000000000000024
#03710:41
#03816:000000000014000000000000000000000000000000000000
#0381b:0013
#03815:0000000000130000
#03812:2400000000000013
#03818:00000013
#03912:0000000000130000
#03918:00130013
#03915:0013000000000013
#0391b:13
#04512:14140000
#0451a:00001414
#04516:0014001400140014
#06415:00130013
#06418:0000001300130000
#06412:0013
#06518:16
#00018:00130000
#00015:13
#00013:00003333
#00014:0000000000330033
#04612:14140000
#04616:0014001400140014
#0461a:00001414
#04712:14
#04815:0000000000000013
#0481a:0000000000140000
#04816:54
#04819:000054
#04818:000000000000000000000000000000000054000000000000
#04817:00000054
#00615:0013000000000000
#00618:00131300
#00612:0000001300000000
#0061b:13000000000000000000001300000000
#00812:00130000
#00818:0000001300000023
#00815:00001323
#0081b:0000000000130000
#00918:0013000000000000
#00915:00131300
#0091b:0000001300000000
#00912:13000000000000000000001300000000
#0131b:13
#01318:000000000000330000000000330000000033000000330000
#01412:13
#01415:000000000000330000000000330000000033000000330000
#01518:13
#0151b:000000000000330000000000330000000033000000330000
#01615:13
#01612:000000000000330000000000330000000033000000330000
#01718:2313000000000000
#01715:0000231300000000
#0171b:0000000023130000
#01712:0000000000002313
#01818:2313000000000000
#01815:0000231300000000
#0181b:0000000023130000
#01812:0000000000002313
#02915:000000000013000000000000000000000000000000130000
#02918:00130000
#02912:0000001300000000
#0291b:0013
#0291a:24
#02910:41
#03018:1313
#03012:0000001300000013
#03015:0000000000130000
#0301b:00000013
#03112:0000001313000000
#0311b:1300000000000013
#03218:0013000000000000
#0321b:0000001300000000
#03215:23001313
#03212:0000230000130013
#03214:000000000000000000000000000000000033000000000033
#03213:000000000000003300003300
#0331b:0013000000000000
#03318:0000130000000013
#03315:0000001300000000
#03312:0013
#03412:13
#03415:000000130000000000000000000013000000000000000000
#03418:0000130000000013
#03518:0000001300000000
#03512:130000000000000000000000000000330013000000000000
#03515:000000130033
#0411a:14
#04112:14
#0411f:11
#0421a:14
#04312:14
#04316:0014
#0441a:14
#04416:0014
#04915:0000000000000013
#0491a:24
#05018:1313
#05012:0000001300000013
#05015:0000000000130000
#0501b:00000013
#0501f:21
#05010:0041
#0511b:0000000000000013
#05118:13
#05115:0000001313000000
#05218:0013000000000000
#05212:0000130000130013
#0521b:0000001300000000
#05215:13001313
#05214:000000000000000000000000000000000033000000000033
#05213:000000000000003300003300
#0531b:0013000000000000
#05318:0000130000000013
#05315:0000001300000000
#05312:0013
#05412:13
#05415:000000130000000000000000000013000000000000000000
#05418:0000130000000013
#05518:0000001300000000
#05512:130000000000000000000000000000330013000000000000
#05515:000000130033
#05618:000000000000000000000013000000000000000000000000
#0561b:00130000
#05718:000000000013000000000000000000000000000000130000
#05715:00130000
#0571b:0000001300000000
#05712:2413
#05815:1313
#0581b:0000001300000013
#05818:0000000000130000
#05812:00000013
#05912:0000000000000013
#05915:13
#05918:0000001313000000
#06015:0013000000000000
#0601b:0000130000130013
#06012:0000001300000000
#06018:13001313
#06019:000000000000000000000000000000000033000000000033
#0601a:000000000000003300003300
#06112:0013000000000000
#06115:0000130000000013
#06118:0000001300000000
#0611b:0013
#0621b:13
#06218:000000130000000000000000000013000000000000000000
#06215:0000130000000013
#06315:0000001300000000
#0631b:130000000000000000000000000000330013000000000000
#06318:000000130033
#00418:000000000023000000230000000000000000000000000000
#00415:23230000
#0201b:23
#04015:000000000023000000230000000000000000000000000000
#04018:23230000
#0025b:53
#00252:00000053
#00258:000000000053000000000000000000000000000000000000
#00255:0000000000000053
#00552:00000000000000000000005300000000
#00555:0000000053000013
#00755:00130000
#0075b:0000005300530053
#00758:00005353
#0105a:2424242414000000
#01058:00240024002400240000000000000000
#01059:0054005400540054005400540054005400000000000000000000000000000000
#01152:0013
#0205b:13
#02152:0053
#02252:000000000013000000000000000000000000000000000000
#02255:53
#0225b:0000000000000013
#02655:00530000
#02658:000000000000005300000000
#02855:000000000000000000000053000000000000000000000000
#02852:00630000
#03658:0013
#03655:0013000000001300
#03758:13
#04752:54
#0495a:54
#06452:0013
#06455:00000013
#06458:0013000000000000
#06558:16
#00352:13
#0065b:00000000000000000000006300000000
#00658:0000000063000013
#00952:00000000000000000000005300000000
#00955:0053
#0135b:53
#01452:63
#01558:63
#01655:53
#02352:63
#02355:000000000013000000000000000000000000000000000000
#0235b:0053
#02358:000000000000000000000000000000000013000000000000
#02558:13
#0255b:0063
#02458:00005353
#0245b:0000000000530053
#0275b:530000000000000000000000000000000053000000000000
#02758:0053
#0295b:0063
#03058:63
#03052:0000000000000013
#0305b:000000000013000000000000000000000000000000000000
#03458:00630000
#03455:000000000000006300000000
#03552:630000000000000000000000000000000063000000000000
#03555:0063
#0315b:53
#03152:0063
#03158:000000000013000000000000000000000000000000000000
#03155:000000000000000000000000000000000013000000000000
#03255:00006363
#03252:0000000000630063
#03352:0053
#03355:13
#03852:54
#03856:000000000054000000000000000000000000000000000000
#03958:00630000
#0445a:54
#04456:0024
#04352:54
#04356:0024
#04152:54
#0425a:54
#05058:63
#05052:0000000000000013
#0505b:000000000013000000000000000000000000000000000000
#05458:00630000
#05455:000000000000006300000000
#05658:000000000000000000000063000000000000000000000000
#0565b:00530000
#05552:630000000000000000000000000000000063000000000000
#05555:0063
#05255:00006363
#05252:0000000000630063
#05352:0053
#05355:13
#05158:63
#0515b:000000000013000000000000000000000000000000000000
#05155:0053
#05152:000000000000000000000000000000000013000000000000
#05855:53
#0585b:0000000000000013
#05852:000000000013000000000000000000000000000000000000
#06255:00530000
#06258:000000000000005300000000
#0635b:530000000000000000000000000000000053000000000000
#06358:0053
#06058:00005353
#0605b:0000000000530053
#0615b:0063
#06158:13
#05955:53
#05958:0063
#05952:000000000013000000000000000000000000000000000000
#0595b:000000000000000000000000000000000013000000000000
#05752:0053
#000320:000000000000000000000013000000000033000000000033
#000330:00003333
#000350:000000000000003300003300
#000340:0000000000330033
#001320:23
#0023b0:1300002300000000
#002380:000000000033000000000000000000000000000000000000
#002320:00000013
#002350:0000000000000033
#003320:23
#004350:132300000000000000000000
#004380:000000000000000000130023000000000000000000000000
#005350:0000000013000023
#005320:00000000000000000000003300000000
#006380:0000000013000023
#0063b0:00000000000000000000003300000000
#0073b0:0000001300330033
#007380:00003333
#008380:332300000000000000000000
#009350:0000000013000023
#009320:00000000000000000000003300000000
#0103a0:1454545424000000
#010390:0054005400540054005400540054005400000000000000000000000000000000
#010380:00540054005400540000000000000000
#010350:000000000000000000132300
#011380:000000000000000000132300
#0133b0:13
#013380:000000000000330000000000330000000033000000330000
#014380:23
#014321:13
#014351:000000000000330000000000330000000033000000330000
#015351:23
#015380:13
#0153b0:000000000000330000000000330000000033000000330000
#0163b0:23
#016351:13
#016321:000000000000330000000000330000000033000000330000
#017321:23
#021321:142400000000000000000000
#021321:0013
#021351:00000023
#022351:13
#022321:000000000023000000000000000000000000000000000000
#023321:13
#023351:000000000023000000000000000000000000000000000000
#0233b1:0013
#023381:000000000000000000000000000000000023000000000000
#024381:00001333
#0243a1:000000000000003300003300
#0243b1:0000000000330033
#024391:000000000000000000000000000000000033000000000033
#025381:23
#0253b1:0013
#025381:000000000000000000000000000000330023000000000000
#026351:00130000
#026321:000000000000000000330023000000000000000000000000
#026381:000000000000001300000000
#0263b1:00000023
#0273b1:13
#027381:000000000023000000000000000000000000000000000000
#027381:000000000000000000000000130000000000000033000033
#0273b1:000000000000000000000000000000330033000000000000
#028381:000033230000000000000000000000000000000000000000
#028321:0000130000000023
#028351:000000000000000000000033000000000000000000000000
#0293a1:142400000000000000000000
#0293b1:0013
#029381:00000023
#030381:13
#0303b1:000000000023000000000000000000000000000000000000
#0313b1:13
#031381:000000000023000000000000000000000000000000000000
#031321:0013
#031351:000000000000000000000000000000000023000000000000
#032351:00001333
#032331:000000000000003300003300
#032321:0000000000330033
#032341:000000000000000000000000000000000033000000000033
#033351:23
#033321:0013
#033351:000000000000000000000000000000330023000000000000
#034381:00130000
#0343b1:000000000000000000330023000000000000000000000000
#034351:000000000000001300000000
#034321:00000023
#035321:13
#035351:000000000023000000000000000000000000000000000000
#035351:000000000000000000000000130000000000000033000033
#035321:000000000000000000000000000000330033000000000000
#036351:000033230000000000000000000000000000000000000000
#038321:1400002400000000
#038361:000000000034000000000000000000000000000000000000
#039381:00130000
#0393b1:000000000000000000330023000000000000000000000000
#040381:132300000000000000000000
#040351:000000000000000000130023000000000000000000000000
#041321:14
#042361:24
#0423a0:14
#043360:24
#043321:14
#043361:0054
#044321:24
#0443a0:14
#044360:0054
#0453a0:24
#047320:14
#048360:24
#0493a0:14
#049360:00000024
#050380:13
#0503b0:000000000023000000000000000000000000000000000000
#051380:13
#0513b0:000000000023000000000000000000000000000000000000
#051350:0013
#051320:000000000000000000000000000000000023000000000000
#052350:00001333
#052330:000000000000003300003300
#052320:0000000000330033
#052340:000000000000000000000000000000000033000000000033
#053350:23
#053320:0013
#053350:000000000000000000000000000000330023000000000000
#054380:00130000
#0543b0:000000000000000000330023000000000000000000000000
#054350:000000000000001300000000
#054320:00000023
#055320:13
#055350:000000000023000000000000000000000000000000000000
#055350:000000000000000000000000130000000000000033000033
#055320:000000000000000000000000000000330033000000000000
#056350:000033230000000000000000000000000000000000000000
#0563b0:0000130000000023
#056380:000000000000000000000033000000000000000000000000
#057320:142400000000000000000000
#057320:0013
#057350:00000023
#058350:13
#058320:000000000023000000000000000000000000000000000000
#059350:13
#059320:000000000023000000000000000000000000000000000000
#059380:0013
#0593b0:000000000000000000000000000000000023000000000000
#060380:00001333
#0603a0:000000000000003300003300
#0603b0:0000000000330033
#060390:000000000000000000000000000000000033000000000033
#061380:23
#0613b0:0013
#061380:000000000000000000000000000000330023000000000000
#062350:00130000
#062320:000000000000000000330023000000000000000000000000
#062380:000000000000001300000000
#0623b0:00000023
#0633b0:13
#063380:000000000023000000000000000000000000000000000000
#063380:000000000000000000000000130000000000000033000033
#0633b0:000000000000000000000000000000330033000000000000
#064380:000033230000000000000000000000000000000000000000
#0489a0:0000000000140000
#048970:00000024
