This file was generated by Ched 2.7.0.0.
#TITLE ""
#ARTIST ""
#DESIGNER ""
#DIFFICULTY 0
#PLAYLEVEL
#SONGID ""
#WAVE ""
#WAVEOFFSET 0
#JACKET ""
#REQUEST "ticks_per_beat 480"
#00002: 4
#BPM01: 116
#00008: 01
#TIL00: ""
#VOLUME: ""
#HISPEED 00
#MEASUREHS 00
#0011a:1414
#00114:00140000
#00212:1414
#00218:00140000
#0031a:1414
#00314:00140000
#0051a:1414
#00514:00140014
#00510:41
#00618:1414
#00612:00140014
#0071a:1414
#00714:00140014
#00818:14
#0081a:00343400
#00912:1414
#00918:00140014
#01014:1414
#0101a:00140014
#01112:1414
#01118:00140014
#01214:14
#01212:00343400
#01210:41
#01914:1414
#01918:00140014
#02014:14
#02114:00140000
#02118:0014
#02112:00000014
#0211a:24
#02110:41
#0231a:1414
#02314:00140014
#0241a:14340034
#02418:0014
#02514:00140014
#02518:0014
#0261a:1414
#02612:00140014
#0281a:14
#02918:00140000
#02914:0014
#0291a:00000014
#02912:24
#02910:41
#03112:1414
#03118:00140014
#03212:14340034
#03214:0014
#03318:00140014
#03314:0014
#03412:1414
#0341a:00140014
#03612:14
#03618:00140014
#03614:0014
#03714:14000024
#03718:0024
#03710:41
#03918:14
#03914:00140000
#0391a:0014
#03912:00000014
#04518:0014
#04614:14
#0461a:0014
#04712:14
#05112:1414
#05118:00140014
#05212:14340034
#05214:0014
#05318:00140014
#05314:0014
#05412:1414
#0541a:00140014
#05612:14
#05714:00140000
#05718:0014
#05712:00000014
#0571a:24
#0591a:1414
#05914:00140014
#0601a:14340034
#06018:0014
#06114:00140014
#06118:0014
#0621a:1414
#06212:00140014
#0641a:14
#06414:00140014
#06418:0014
#06518:14
#0411f:11
#00412:240034000034340000340000000000000000000000000000
#01718:24343400
#0401a:240034000034340000340000000000000000000000000000
#04919:24
#04913:24
#0501f:21
#05010:0041
#0131a:00343400
#0141a:00343400
#01512:00343400
#01612:00343400
#01818:00343400
#00454:000000000000000000000014000000000000000000000000
#00452:64
#00858:64
#01254:54
#02054:14
#0245a:54
#02458:0054
#0255a:14
#0285a:54
#03252:64
#03254:0064
#03352:14
#0405a:54
#04058:000000000000000000000014000000000000000000000000
#04752:54
#05252:64
#05254:0064
#05652:64
#0605a:54
#06058:0054
#05352:14
#0615a:14
#004320:140034000034340000340000000000000000000000000000
#004340:000000000000000000000024000000000000000000000000
#008380:14
#0083a0:00343424
#012340:14
#012320:00343424
#0133a0:14343400
#013380:00000034
#014380:34
#0143a0:00343424
#015320:14343400
#015340:00000034
#016340:34
#016320:00343424
#017380:14343400
#0173a0:00000034
#0183a0:34
#018380:00343424
#0223a0:14
#022380:00240000
#022340:0014
#022320:00000024
#0243a0:14340034
#024380:0034
#0253a0:24
#027380:14
#0273a0:00240000
#027340:0014
#027320:00000024
#0283a0:14
#028380:00000024
#030320:14
#030340:00240000
#030380:0014
#0303a0:00000024
#032320:14340034
#032340:0034
#033320:24
#035340:14
#035320:00240000
#035380:0014
#0353a0:00000024
#0383a0:14
#038380:00240000
#038320:0014
#038340:00000024
#0403a0:140034000034340000340000000000000000000000000000
#040380:000000000000000000000024000000000000000000000000
#041320:14
#042340:34
#043320:34
#044340:34
#045320:24
#047320:14
#048340:24
#050320:14
#050340:00240000
#050380:0014
#0503a0:00000024
#052320:14340034
#052340:0034
#053320:24
#055340:14
#055320:00240000
#055380:0014
#0553a0:00000024
#056320:14
#056340:00000024
#0583a0:14
#058380:00240000
#058340:0014
#058320:00000024
#0603a0:14340034
#060380:0034
#0613a0:24
#063380:14
#0633a0:00240000
#063340:0014
#063320:00000024
