This file was generated by Ched 2.7.0.0.
#TITLE ""
#ARTIST ""
#DESIGNER ""
#DIFFICULTY 0
#PLAYLEVEL
#SONGID ""
#WAVE ""
#WAVEOFFSET 0
#JACKET ""
#REQUEST "ticks_per_beat 480"
#00002: 4
#BPM01: 188
#00008: 01
#TIL00: ""
#VOLUME: ""
#HISPEED 00
#MEASUREHS 00
#01512:16
#01618:0016
#01812:16
#01918:0016
#02118:16
#02212:0016
#02412:16
#03118:0016
#03312:16
#03912:14
#0401a:0014
#04010:0041
#04214:14
#04318:0014
#04512:14
#0461a:0014
#0481a:14
#04914:0014
#05114:14
#05218:0014
#05418:14
#05512:0014
#05510:0041
#05712:14
#07112:00160000
#07110:00410000
#07218:16
#07212:00000016
#07318:0016
#07418:00160000
#07718:00160000
#07812:16
#07818:00000016
#07912:0016
#08012:00160000
#08312:00160000
#08512:0016
#08510:0041
#08618:00160000
#08712:16000016
#08418:16000016
#09314:00000014
#09418:0014
#09614:14
#0581f:0011
#03418:0026
#07018:0026
#0701f:0021
#07612:0026
#08218:0026
#09118:0026
#01310:0041
#02810:0041
#0003a0:14
#0013a0:0024
#003340:14
#004340:0024
#006380:14
#007380:0024
#009320:14
#010320:0024
#012390:14
#013380:0026
#025380:0016
#027380:26
#028320:0016
#030320:26
#034380:0016
#037380:0026
#0583a0:0014
#0593a0:00340000
#0603a0:34000024
#061340:0014
#062340:00340000
#063340:34000024
#064380:0014
#065380:00340000
#066380:34000024
#067320:0014
#069320:24
#075380:16000026
#081320:16000026
#088380:0016
#089380:00260000
#090320:16000026
#091380:0016
#093380:26
#097380:0014
#100380:0024
