This file was generated by Ched 2.7.0.0.
#TITLE ""
#ARTIST ""
#DESIGNER ""
#DIFFICULTY 0
#PLAYLEVEL
#SONGID ""
#WAVE ""
#WAVEOFFSET 0
#JACKET ""
#REQUEST "ticks_per_beat 480"
#00002: 4
#BPM01: 103
#00008: 01
#TIL00: ""
#VOLUME: ""
#HISPEED 00
#MEASUREHS 00
#0051a:14
#00612:14
#04712:14
#0471a:0014
#00712:14
#01314:14
#01418:14
#01612:0016
#01618:26
#01610:41
#04518:0014
#04614:14
#04618:0014
#0041a:14
#00410:41
#00918:14
#01014:14
#01010:41
#01812:1616
#01918:1616
#02018:0016
#02012:26
#02218:1616
#02210:41
#02312:1616
#03412:16
#03418:0016
#03512:16
#03518:0016
#03618:0016
#03612:26
#03818:16
#03812:0016
#03918:16
#03912:0016
#04218:0014
#04214:14
#04210:41
#04812:14
#0481a:0014
#05012:14
#04018:16
#0331f:11
#00812:24
#0081a:24
#0111a:24
#01112:24
#01218:24
#01514:24
#03219:24
#03213:24
#0411f:21
#04414:34
#04314:00343434
#02810:41
#05052:64
#04058:66
#000380:14
#001380:24
#002340:14
#003340:24
#015340:143434240000
#017380:1626
#021320:1626
#024380:14
#0253a0:24
#026340:14
#027320:24
#0283a0:14
#029380:24
#030320:14
#031340:24
#033380:1626
#037320:1626
#040380:16
#041390:24
#043340:14343434
#044340:34
#044320:00340000
#045340:24
#049320:14
#050320:34
#051320:23
