This file was generated by Ched 2.7.0.0.
#TITLE ""
#ARTIST ""
#DESIGNER ""
#DIFFICULTY 0
#PLAYLEVEL
#SONGID ""
#WAVE ""
#WAVEOFFSET 0
#JACKET ""
#REQUEST "ticks_per_beat 480"
#00002: 4
#BPM01: 103
#00008: 01
#TIL00: ""
#VOLUME: ""
#HISPEED 00
#MEASUREHS 00
#0001a:120000000000000000000012000000000000000000000000
#00014:120000000000000000000012000000000000000000000000
#00016:000000000000120000000000000000001200000000000000000000120000000000000000000000000000000000001200
#00018:0000120000121212
#0221b:000000130000000000000000000000000013000000000013
#02212:000000000013000000000000000000130000000000000000
#02218:000000000000001300000000
#02215:001300000000000000000000
#02210:41
#01812:000000130000000000000000000000000013000000000013
#0181b:000000000013000000000000000000130000000000000000
#01815:000000000000001300000000
#01818:001300000000000000000000
#01415:13
#01416:0000000000000014
#0141a:00000014
#01218:0023000000231300
#0121b:0013
#01215:000000000000000000230013000000000013000000230000
#01212:000000000000001300000000
#0121a:24
#0061a:000000140014
#00616:1400141400000014
#00612:00140014
#00512:000000000000000000140000000000000000000000000014
#00516:0000141400000014
#0051a:00001414
#00318:0013
#00315:00130000
#00312:13
#0031a:00000014
#00316:0000000000000014
#03912:000000130000000000000013000000000013000000000000
#03916:000000000013
#0391b:000000001300000000000000000000000000001300000000000000000000130000000000000000000000000000000000
#03918:000000000013000013000000000000000000000000000000
#04016:0014001400140014
#0401b:13
#0491a:000000000000000000120000000000000012000000000000
#04918:24
#0041a:140000000000000000140000000000000000000000000014
#00416:0000141400000014
#00412:240000000014000000000000140000000000140000000000
#00410:41
#01018:160000000000160000000000160000000016000000001600160000000016000000160000000000000000000000000000
#0101a:000000001400000000001400000000140000000000140014000000140000001400000000000000000000000000000000
#01016:00120000
#01014:000000000000000000000012000000000000000000000000
#01012:2424000000001200
#01010:41
#00912:160000001400160000001400160000140016000000141614160000140016001400160000000000000000000000000000
#00918:00120000
#0091a:240000240000000000000012000000000000000000000000
#0091c:00000012
#00817:00000012
#00818:26
#00812:26
#05012:16
#02714:1212
#0271b:0013
#02712:00220022
#02418:0012
#02415:0013000000000000
#0241a:00220022
#01912:000000000000000000000000000000000000000000000013
#0191b:000013000013000000000000000000130000000013000000
#01916:000000130000000013000000000013000013000000000000
#01917:000000000000000000000013000000000000000000000000
#0361b:000000130000000000000013000000000000000000000000
#03612:000000000000000000000000000013000013000013000000
#03617:0000000000130000
#03616:000013000013000013000000000000000000000000000000
#03717:000000130000000000000000000000000013000013000000
#03712:0013000000130000
#03716:000000000000000000000000000000000000000000000013
#0371b:0000000000130000
#03812:000000130000000000000013000000000000000000000000
#0381b:000000001300001300000000
#03819:000000000013000000000000000000000000000000000000
#03817:001300000000000000000000
#03818:000000000000000000000000000000000013000000000000
#03816:0000000000130000
#03815:00000023
#03316:000000130000000000000000000000000013000013000000
#03317:000000000000000000000000000000000000000000000013
#03312:0000000000130000
#0331b:0013000000130000
#0331f:11
#03318:26
#0341b:000000130000000000000013000000000000000000000013
#03412:000000001300001300000000
#03416:001300000000000000001300
#03414:000000000013000000000000000000000013000000000000
#03417:0000000000130000
#03517:000000000000000000000000000000000000000000000013
#03515:000000000000000000000000000000001300000000000000000000001300000000000000000000000000001300000000
#03512:000000000000000000001300000000000000001300000000000000000000000000001300000000001300000000000000
#0351b:000000000000130000000000000000000000000000000000001300000000000000000000000000000000000000000000
#03518:001300000000000000000000000000000000000000001300000000000000130000000000000000000000000000000000
#03516:001300000000000000000000
#0411b:13
#04112:23
#0411f:21
#03116:14
#03114:0018
#03113:0000001a
#03115:00160000
#04219:0000001200000000
#04218:0000000000120000
#04217:0000000000000012
#0421a:00000012
#0421c:00120000
#0421b:0012
#04212:0016000000000000
#04214:28
#04210:41
#04319:12000024
#04314:000000000000002400000000
#04317:000000002424
#04315:000000000024000000000024
#04312:0024
#0431a:00240000
#04318:002400
#04316:002400000000
#04816:001300000000000000131300
#0481b:000000130000000000000000000000000000000013000000
#04817:0000000000130000
#04812:130000000000001300000000
#04818:0013
#0481a:00130000
#04815:000000000013000000000000000000000000000000000000
#04819:0000001300000000
#04814:001300
#04813:000000000000000000000013000000000000000000000000
#04513:0000130000000015
#04518:000000140000000013000000000000120000000015000016
#0451a:14131214
#04516:000000000000001200000000
#04514:001400000000120000000000
#04515:0000001300000000
#04512:14000014
#04617:000000130000000000001300
#04612:260000000013000000000000000000000000000000000000
#0461b:000000130000000013000000000000000000000000000013
#04613:00000013
#04618:000000000000000000000000000000000013000000000000
#04614:0000000000130000
#04619:000000000000001300000000
#04615:0013
#0461a:000000000000000000000013000000000000000000000000
#04616:0000001300000000
#04717:000000000000000000000013000000130000000000000013
#04715:0013000000000000
#0471a:001300000000000000000000
#04714:00130000
#04719:000000000013000000000000000000000000000000000000
#04713:0000001300000000
#04718:001300
#04716:130000000000000000131300
#0471b:000000000013
#02317:000000130000000013000000000000000000130000000000
#02316:000000000000000000000013000000000000000000000000
#02312:000013000013000000000000000000000000000000000000
#02118:000000130000000000000000000000000013000000000000
#02115:0013000000000000
#02018:000000000013000000000000000000000013000013000000
#02012:00000013
#0201b:001300000000001300000000
#02016:0013000000000000
#02015:0000000000130000
#03012:00001222
#03015:0000000000120000
#03017:000000000012000000000000000000000012000000000000
#03018:0012
#03019:0012000000000000
#03016:12
#0301c:00220000
#0301b:63
#02912:0012
#0291a:12220000
#02918:0012000000000000
#02916:000000000012000000000000000000000000000000000000
#02914:12000022
#02919:00000063
#02917:0063
#02818:000000120000000000000000120000000012000000000000
#02814:00001222
#02816:220000000012000000000000000000120000000000000000
#0281a:12220000
#02810:41
#0261a:0012
#0261c:00220022
#02617:63
#02516:0012
#02518:12120000
#02514:00220022
#02519:00000063
#0251b:0063
#01718:0013000000130000
#01715:000000130000000000000000000000000013000000000000
#01612:001300000000001300000000
#01615:130000000013000000000000000000000013000000000000
#01618:2613000000130000
#01610:41
#01516:000000000000000000000014
#0151a:000000000000000000141400
#01512:260026000026000000141400
#01518:002600002600260000000000
#01318:000000000000000000000000130000000000000000000013
#01312:000000000000000000230000000000000013000000230000
#01315:000000000000000000000013000013000000000000000000
#0131b:0023000000230000
#01113:000000160000160016160016160016160016000000000000
#01114:140000000000000000000000001400000000000000000000001400000000000000140000001400000000000000140000001400000000000000140000001400000000000000140000000000000000000000000000000000000000000000000000
#01116:0000000000000014
#0111a:24000014
#01112:00000028
#00714:0014000000000000
#00718:0014000000000000
#0071c:0052
#00712:0052
#00117:0000000000001212
#00119:000000000000120000000000000000000012000000000000
#00118:120000000000000000000012000000000000000000000000
#0011b:000000000000001200000000
#00115:001200
#00114:0012000000000000
#00218:000000000000120000000000000000001200000000000000000000120000000000000000000000000000000000001200
#00216:0000120000121212
#0021a:120000000000000000000012000000000000000000000000
#00214:120000000000000000000012000000000000000000000000
#04415:002400000000000000000000
#04417:002400000000
#04413:24
#04414:00240000
#04418:00240000
#03212:2c
#05112:52
#02252:000000000000000000000000000000000000000000000013
#0225b:000000000000000000000013000000000000000000000063
#02155:000000630000000000000000000000000000000000000013
#02158:0053000000000000
#0185b:000000000000000000000000000000000000000000000013
#01852:000000000000000000000013000000000000000000000053
#00652:0014
#00656:1400546400000000
#0065a:0014
#00556:00641400
#00552:0000005400000000
#0055a:0014
#00456:00541400
#00452:1414
#0045a:1400006400000000
#03656:000000000000000063000000000000000000000000000013
#03652:000000000000000000000013000000000000000053000000
#0365b:000000000000000000000063000000000000000000000000
#04052:13
#03958:000000000000000053000013000000000000000000000000
#03956:000000000063
#03952:000000000000000000000053000000000000000000000000
#0395b:000000000000000000000000000000000000002300000000000000000000000000000000000000000000000000000000
#03855:000000000000000000000000000000000000000000000013
#03858:000000000000000000000000000000000000000000000013
#03857:000000000000000000000013000000000000000000000000
#03852:000000000000000000000053000000000000000000000000
#0385b:006300
#0375b:000000000000000000000000000000000000000000000013
#03757:000000530000000000000000000000000000000053000000
#03752:0053000000000000
#03756:000000000000000000000000000000000000000000000063
#03552:000000000000000000000000000000000000002300000000000000000000000000000000000000005300000000001300
#03555:000000000000000000000000000000006300000000001300000000000000000000000000000000000000002300000000
#03557:000000000000000000000000000000000000000000000053
#0355b:000000000000000000000000000000000000000000000000002300000000000000000000000000000000000000000000
#03558:002300000000000000000000000000000000000000005300000000000000000000000000000000000000000000000000
#03352:000000000000000000000000000000000000000000000013
#03358:16
#03356:000000630000000000000000000000000000000063000000
#03357:000000000000000000000000000000000000000000000053
#0335b:0063000000000000
#0245b:13
#02455:0063000000000000
#02352:00000013
#0235b:000000000000000000000013000000000000000000000000
#02357:000000005300000000530000
#02356:000000000000000000000063000000000000000000000000
#02055:000000000000000000000000000000000000000000000013
#02058:000000000000000000000013000000000000000000000000
#01957:000000000000000000000053000000000000000000000013
#01952:000000000000000000000013000000000000000000000063
#0195b:000000000063
#01956:006300
#01758:000000530000000000000000000000000000000000000013
#01755:0063000000000000
#01658:460000000000000000000000000000000000000000000013
#01655:000000000000000000000013000000000000000000000000
#03452:000000000000000053000000000000000000000000000013
#03456:000000000000000000000013000000000000000063000000
#0345b:000000000000000000000063000000000000000000000063
#04152:13
#0415b:63
#04254:18
#04252:0066000000000000
#03252:1c
#04652:16
#01558:004600004600460000000000
#01552:360036000036000000000000
#01556:000000000000000000000024
#0155a:000000000064
#04454:00640000
#04458:00540000
#02856:12
#01152:00000018
#0115a:14000064
#01153:000000560000560056560056560056560056000000000000
#01154:240000000000000000000000002400000000000000000000002400000000000000240000002400000000000000240000002400000000000000240000002400000000000000240000000000000000000000000000000000000000000000000000
#01156:0000000000000024
#0125a:44
#01258:00000053
#00858:16
#00852:16
#01455:63
#01456:0000000000000024
#0145a:00000064
#0495a:000000000000000000000000000000000062000000000000
#01058:560000000000560000000000560000000056000000005600560000000056000000560000000000000000000000000000
#0105a:000000002400000000002400000000240000000000240024000000240000002400000000000000000000000000000000
#00952:660000002400660000002400660000240066000000246624660000240066002400660000000000000000000000000000
#05052:66
#03156:14
#03154:0018
#03153:0000001a
#03155:00160000
#04856:000000000063
#04857:0000000000530000
#04757:0000000000530000
#04756:000000000063
#0275b:0063
#00754:0064000000000000
#00758:0054000000000000
#004360:00142400
#0043a0:0000003400000000
#005320:1424000000000000
#0053a1:0014240000000000
#005360:00142400
#005320:0000003400000000
#006360:00140000
#0063a0:0000002400000000
#006361:0000001400000000
#006321:0024
#0073a1:14
#007381:0034000000000000
#0073c1:0022
#007320:1422
#007340:0034000000000000
#009320:160000005400560000005400560000540056000000545654560000540056005400560000240000000000000000000000
#010380:160000000000560000000000560000000056000000005600560000000056000000560000000000000000000000000000
#0103a0:000000005400000000005400000000540000000000540054000000540000005400000000240000000000000000000000
#011340:140000000000000000000000005400000000000000000000005400000000000000540000005400000000000000540000005400000000000000540000005400000000000000540000000000000000000000000000000000000000000000000000
#011330:000000560000560056560056560056560056000000000000
#011320:00000028
#0113a1:00000014
#011361:0000000000000054
#0123a1:24
#012320:1323000000000000
#0123b0:0000132300000000
#012380:00000013
#0133b0:23
#013351:1323000000000000
#013381:0000132300000000
#013381:0000000000001323
#014351:13
#014321:00000023
#0143a0:00000014
#014360:0000000000000054
#0153a0:24
#0153a0:000000000014
#015360:000000000000000000000054
#016380:26
#0163b0:000000132300000000000000
#016321:001300
#016351:000000000000000000000023000000000000000000000000
#0163b0:000000000000000000000013000000000000000000000000
#016380:000000000000002300000000
#0163b0:00000013
#016380:000000000000000000000000000000000000000033000023
#016351:000000000000000000000000000000000000000000000013
#017351:0033000000000000
#017321:0023
#017380:0013000000000000
#0173b0:0023
#0173b0:000000000000000000133300
#017380:000000000000000000000000000000000000000000000023
#017351:000000000000000000000000000000000000000000000013
#018321:002300000000000000000000
#018351:000000133300000000000000
#018321:000000000000000000000023000000000000000000000000
#018380:000000000000000000000013000000000000000000000000
#0183b0:000000000000002300000000
#018380:000000000000000000133300
#0183b0:000000000000000000000000000000000000000000000023
#018321:000000000000000000000000000000000000000000000013
#019361:002300000000000000000000
#019361:000000133300000000000000
#019321:000000000000000000000023000000000000000000000000
#019370:000000000000000000000013000000000000000000000000
#0193b0:000000000000002300000000
#0193b0:000000000000000000133300
#019370:000000000000000000000000000000000000000000000023
#019321:000000000000000000000000000000000000000000000013
#020361:002300000000000000000000
#020351:000000132300000000000000
#0203b0:001300
#020380:000000000000000000000023000000000000000000000000
#020321:000000000000000000000013000000000000000000000000
#020351:000000000000002300000000
#020351:000000000000000000000000000000000000000000130023
#020380:000000000000000000000000000000000000000000000013
#021380:0033000000000000
#0213b0:0023
#021351:0013000000000000
#021321:0023
#021321:000000000000000000133300
#021351:000000000000000000000000000000000000000000000023
#021380:000000000000000000000000000000000000000000000013
#0223b0:002300000000000000000000
#022380:000000133300000000000000
#0223b0:000000000000000000000023000000000000000000000000
#022351:000000000000000000000013000000000000000000000000
#022321:000000000000002300000000
#022351:000000000000000000133300
#022321:000000000000000000000000000000000000000000000023
#0223b0:000000000000000000000000000000000000000000000013
#023370:002300000000000000000000
#023370:000000133300000000000000
#0233b0:000000000000000000000023000000000000000000000000
#023361:000000000000000000000013000000000000000000000000
#023321:00000023
#023370:00000013
#0243b0:23
#024351:1333000000000000
#025321:22
#026321:12
#026371:00220000
#026371:0012
#026321:00000022
#027371:13
#027391:00330000000000000000000000000000
#0273b1:0033000033000000
#027381:00000000330000330000000023000000
#033321:1323
#033361:0033000000000000
#0333b0:0013000000000000
#033370:0023
#0333b0:000000000000000000132300
#033361:000000000013
#033321:000000000000000000000000000000000000000000000023
#033370:000000000000000000000000000000000000000000000013
#0343b0:002300000000000000000000
#034390:000000132300000000000000
#034321:001300
#034361:000000000000000000000023000000000000000000000000
#0343b0:000000000000000000000013000000000000000000000000
#034370:000000000000002300000000
#034390:000000000000000000132300
#034361:000000000013
#034321:000000000000000000000000000000000000000000000023
#0343b0:000000000000000000000000000000000000000000000013
#035380:005300000000000000000000000000000000000000000000000000000000000000000000000000000000000000000000
#0353b0:002300000000000000000000
#035370:00130000
#0353b0:002300
#035351:000000000000000013000023000000000000000000000000
#035321:000000000000000000000000000000000000005300000000000000000000000000000000000000000000000000000000
#035380:000000000000000000000013000023000000000000000000
#0353b0:000000000000000000000000000000000000000000000000005300000000000000000000000000000000000000000000
#0353b0:00000013
#035370:000000000023
#035321:000000000000000000000000000000000000000013000023
#035351:000000000000000000000000000000000000000000000000000000000000000000000000000000000000005300000000
#035370:000000000000000000000000000000000000000000000013
#0363b0:002300000000000000000000
#0363b0:000000132300000000000000
#036361:001300
#036321:000000000000000000000023000000000000000000000000
#0363b0:000000000000000000000013000000000000000000000000
#036370:000000000000002300000000
#036370:000000000000000000132300
#036321:000000000013
#036361:000000000000000000000000000000000000000000000023
#0363b0:000000000000000000000000000000000000000000000013
#037370:0033000000000000
#0373b0:0023
#037321:0013000000000000
#037361:0023
#037321:000000000000000000132300
#037370:000000000013
#0373b0:000000000000000000000000000000000000000000000023
#037361:000000000000000000000000000000000000000000000013
#038321:002300000000000000000000
#038341:000000132300000000000000
#0383b0:001300
#038370:000000000000000000000023000000000000000000000000
#038321:000000000000000000000013000000000000000000000000
#038361:000000000000002300000000
#038351:000000000000000000000000000000000000130000000023
#038380:000000000000000000000000000000000000000013000023
#039350:000000132300000000000000
#039381:000000000000000013000023000000000000000000000000
#0393b1:000000000000000000000000000000000000005300000000000000000000000000000000000000000000000000000000
#039320:000000000000000000000013000000000000000000000000
#039360:0000000000230000
#0393b0:000000000000000000132300
#039361:000000000013
#040321:23
#0413b1:13
#041371:0000525200000000
#042341:28
#042321:0016000000000000
#043321:24
#044381:00140000
#0443a1:0000000000000024
#044340:00140000
#044320:0000000000000024
#046320:0000000000000013
#046360:000000000000000000000000000000000000000000000023
#047320:0000000013230000
#047371:0000000000130000
#0473b1:00000023
#047361:000000000013
#047321:000000000000000000000000000000000000000000000023
#048371:0000000000130000
#0483b1:00000023
#048361:000000000013
#049321:23
#049361:000000120032000000000000000000000000000000000000
#049341:0000002200000000
#049381:000000000000123200000000
#0493a1:000000000000000000000000000000000032000000000000
#050381:22
#050320:16
#051320:22
#0259b0:0013
#025970:000000000000000000000000000000000000000000000000000000000000000000000000000000000000000000000000000000000000000000000000000000000000000000000000000000000000000000000000000000000000000000000000000000000000000000000000000000000000000000000000000000000000000000000000000000000000000000000000000000000000000000000000000000000000000000000000000000000000000000000000000000000000000000000000000000000000000000000000000000000000000000000000000000000000000000000000000000000000000000000000000000000000000000000000000000000000000000000000000000000000000000000000000000000000000000000000000000000000000000000000000000000000000000000000000000000000000000000000000000000000000000000000000000000000000000000000000000000000000000000000000000000000000000000000000000000000000000000000000000000000000000000000000000000000000000000000000000000000000000000000000000000000000000000000000000000000000000000000000000000000000000000000000000000000000000000000000000000000000000000000000000000000000000000000000000000000000000000000000000000000000000000000000000000000000000000000000000000000000000000000000000000000000000000000000000000000000000000000000000000000000000000000000000000000000000000000000000000000000000000000000000000000000000000000000000000000000000000000000000000000000000000000000000000000000000000000000000000000000000000000000000000000000000000000000000000000000000000000000000000000000000000000000000000000000000000000000000000000000000000000000000000000000000000000000000000000000000000000000000000000000000000000000000000000000000000000000000000000000000000000000000000000000000000000000000000000000000000000000000000000000000000000000000000000000000000000000000000000000000000000000000000000000000000000000000000000000000000000000000000000000000000000000000000000000000000000000000000000000000000000000000000000000000000000000000000000000000000000000000000000000000000000000000000000000000000000000000000000000000000000000000000000000000000000000000000000000000000000000000000000000000000000000000000000000000000000000000000000000000000000000000000000000000000000000000000000000000000000000000000000000000000000000000000000000000000000000000000000000000000000000000000000000000000000000000000000000000000000000000000000000000000000000000000000000000000000000000000000000000000000000000000000000000000000000000000000000000000000000000000000000000000000000000000000000000000000000000000000000000000000000000000000000000000000000000000000000000000000000000000000000000000000000000000000000000000000000000000000000000000000000000000000000000000000000000000000000000000000000000000000000000000000000000000000000000000000000000000000000000000000000000000000000000000000000000000000000000000000000000000000000000000000000000000000000000000000000000000000000000000000000000000000000000000000000000000000000000000000000000000000000000000000000000000000000000000000000000000000000000000000000000000000000000000000000000000000000000000000000000000000000000000000000000000000000000000000000000000000000000000000000000000000000000000000000000000000000000000000000000000000000000000000000000000000000000000000000000000000000000000000000000000000000000000000000000000000000000000000000000000000000000000000000000000000000000000000000000000000000000000000000000000000000000000000000000000000000000000000000000000000000000000000000000000000000000000000000000000000000000000000000000000000000000000000000000000000000000000000000000000000000000000000000000000000000000000000000000000000000000000000000000000000000000000000000000000000000000000000000000000000000000000000000000000000000000000000000000000000000000000000000000000000000000000000000000000000000000000000000000000000000000000000000000000000000000000000000000000000000000000000000000000000000000000000000000000000000000000000000000000000000000000000000000000000000000000000000000000000000000000053
#026970:23
#029970:0013
#0299b0:000000000000000000000000000000000000000000000000000000000000000000000000000000000000000000000000000000000000000000000000000000000000000000000000000000000000000000000000000000000000000000000000000000000000000000000000000000000000000000000000000000000000000000000000000000000000000000000000000000000000000000000000000000000000000000000000000000000000000000000000000000000000000000000000000000000000000000000000000000000000000000000000000000000000000000000000000000000000000000000000000000000000000000000000000000000000000000000000000000000000000000000000000000000000000000000000000000000000000000000000000000000000000000000000000000000000000000000000000000000000000000000000000000000000000000000000000000000000000000000000000000000000000000000000000000000000000000000000000000000000000000000000000000000000000000000000000000000000000000000000000000000000000000000000000000000000000000000000000000000000000000000000000000000000000000000000000000000000000000000000000000000000000000000000000000000000000000000000000000000000000000000000000000000000000000000000000000000000000000000000000000000000000000000000000000000000000000000000000000000000000000000000000000000000000000000000000000000000000000000000000000000000000000000000000000000000000000000000000000000000000000000000000000000000000000000000000000000000000000000000000000000000000000000000000000000000000000000000000000000000000000000000000000000000000000000000000000000000000000000000000000000000000000000000000000000000000000000000000000000000000000000000000000000000000000000000000000000000000000000000000000000000000000000000000000000000000000000000000000000000000000000000000000000000000000000000000000000000000000000000000000000000000000000000000000000000000000000000000000000000000000000000000000000000000000000000000000000000000000000000000000000000000000000000000000000000000000000000000000000000000000000000000000000000000000000000000000000000000000000000000000000000000000000000000000000000000000000000000000000000000000000000000000000000000000000000000000000000000000000000000000000000000000000000000000000000000000000000000000000000000000000000000000000000000000000000000000000000000000000000000000000000000000000000000000000000000000000000000000000000000000000000000000000000000000000000000000000000000000000000000000000000000000000000000000000000000000000000000000000000000000000000000000000000000000000000000000000000000000000000000000000000000000000000000000000000000000000000000000000000000000000000000000000000000000000000000000000000000000000000000000000000000000000000000000000000000000000000000000000000000000000000000000000000000000000000000000000000000000000000000000000000000000000000000000000000000000000000000000000000000000000000000000000000000000000000000000000000000000000000000000000000000000000000000000000000000000000000000000000000000000000000000000000000000000000000000000000000000000000000000000000000000000000000000000000000000000000000000000000000000000000000000000000000000000000000000000000000000000000000000000000000000000000000000000000000000000000000000000000000000000000000000000000000000000000000000000000000000000000000000000000000000000000000000000000000000000000000000000000000000000000000000000000000000000000000000000000000000000000000000000000000000000000000000000000000000000000000000000000000000000000000000000000000000000000000000000000000000000000000000000000000000000000000000000000000000000000000000000000000000000000000000000000000000000000000000000000000000000000000000000000000000000000000000000000000000000000000000000000000000000000000000000000000000000000000000000000000000000000000000000000000000000000000000000000000000000000000000000000000000000000000000000000000000000000000000000000000000000000000000000000000000000000000000000000000000000000000000000000000000000000000000000000000000000000000000000000000000000000053
#0309b0:23
