This file was generated by Ched 2.7.0.0.
#TITLE ""
#ARTIST ""
#DESIGNER ""
#DIFFICULTY 0
#PLAYLEVEL
#SONGID ""
#WAVE ""
#WAVEOFFSET 0
#JACKET ""
#REQUEST "ticks_per_beat 480"
#00002: 4
#BPM01: 103
#00008: 01
#TIL00: ""
#VOLUME: ""
#HISPEED 00
#MEASUREHS 00
#00316:1200000000000014
#0031a:00000014
#00318:52
#00018:120000000000000000000000000000000000000000520052
#00019:000000520000000052000052000000000000000000000000
#0001a:00000000520000000052520052000000
#0041a:00001414
#00416:0000001400000014
#00412:24140000
#00410:41
#00512:14001414
#00516:0014001400000014
#0051a:00140000
#0121b:0013
#01218:00130013
#01212:0023000000000000
#01213:0000002300000000
#01214:0000000000230000
#01215:0000000000000023
#0121a:24
#01514:00000014
#01518:002600002600260000001400
#01512:260026000026000000000000
#04512:13000014
#0451b:13
#04515:0016000000000000
#04513:00130000
#0451a:00130014
#04516:0000001400000014
#04519:0013
#04514:0013
#04517:0000000000120000
#04012:00130013
#04016:1414
#0401b:00130013
#00116:12
#00115:000000520000000052000052000000000000000000520000
#00114:000000000000520000000000000052000052520000000000
#00118:52
#00218:120000000000000000000000000000000000000000520052
#00216:52
#00219:000000520000000052000052000000000000000000000000
#0021a:00000000520000000052520052000000
#01312:1313
#01315:00130013
#0131b:1323000000000000
#0131a:0000002300000000
#01319:0000000000230000
#01318:0000000000000023
#0141b:13
#01412:13
#01612:0013000000000000
#01615:0000000000130000
#0161b:00000013
#01618:00130000
#0161a:24
#01610:41
#01818:0000000000130000
#0181b:0013000000000000
#01815:00130000
#01812:00000013
#0191b:0013130000000000
#01912:0000000000131300
#01915:00130000
#01918:00000013
#01718:0000000000130000
#01715:0013000000000000
#01712:00000013
#0201b:0013000000000000
#02018:0000000000130000
#02015:00130000
#02012:00000013
#02215:0000000000130000
#02212:0013000000000000
#02218:00130000
#0221b:00000013
#02210:41
#02312:0013130000000000
#02318:00130000
#02315:00000013
#0231b:00000013
#02115:0000000000130000
#02118:0013000000000000
#0211b:00000013
#02815:1212
#02819:2212
#0281a:00000022
#02814:00220000
#02810:41
#02915:1212
#02919:1212
#02918:00000022
#02916:00220000
#03018:0012000000002200
#0301a:1212
#03014:1212
#03016:0000220000120000
#03318:2600000000130000
#03312:0013000000001300
#0331b:00000013
#03315:000000000000000000000000000000000000000000000013
#0331f:11
#0421b:00130000
#04218:0013
#04215:00000013
#04212:2c
#04210:41
#04312:13
#0431a:000024343434343434343434
#04416:00140000
#0441a:343434000000000000000000
#04617:0000001400000000
#04614:00141400
#0461a:24141400
#04615:0000000000000014
#04612:24000014
#04618:00000014
#04714:0014
#04719:14
#04716:0014000000000000
#04713:00140000
#04717:0000001400000000
#0471a:0014
#04715:0000000000000014
#04718:00000014
#04712:00000014
#04816:0000000000000014
#04812:14000014
#0481a:00141414
#04818:14
#04817:0000001400000000
#04814:00141400
#04913:13
#0491a:13
#05016:14
#03612:000000000000130000000000000013000000000000000013
#03615:0013000000001300
#0361b:000013000000000000000013000000000000130000000000
#03618:0000130000130000
#03412:000000130000000000000000000013000000000000000014
#03418:000013000000000000000013000000130000000000000000
#0341b:00130013
#03415:00130013
#03514:000000140000000000000000000014000000000000000000
#03518:000014000000000000000000000000140000000000000000
#0351a:000000000000140000000014000000000000140000000000
#03512:000000000000140000000000000000000000140000000013
#0371b:0013000000001300
#03712:00000013
#03718:000000000000000000000000000000000000000000000013
#0381b:000000130000000000000000000013000000000000000000
#03815:000013000000000000000013000000130000000000000000
#03812:00130013
#03818:00130013
#0381a:000000000000000000000000000000000000000000000014
#03918:0014000000000000
#03914:001400000000000000000000
#0391a:00140014
#03912:00140014
#00612:00001414
#0061a:14140000
#00616:0000001400000014
#0071a:14
#00716:0014000000000000
#00717:0052
#00812:24
#0081a:24
#01118:24
#01112:00000024
#01114:24
#0091a:24
#00914:0024000000000000
#01012:24
#01018:0024000000000000
#01010:41
#02414:00220022
#0251a:00220022
#02616:00220022
#03212:2c
#02718:00220022
#0411f:21
#05117:52
#00852:14
#0085a:14
#00452:14
#0045a:0014
#01158:14
#01152:00000014
#01154:14
#0095a:14
#00954:0014000000000000
#01052:14
#01058:0014000000000000
#04652:14
#0465a:1414
#04654:0014
#03252:1c
#03358:16
#03355:000000000000000000000000000000000000000000000013
#03352:0053000000000000
#00356:62
#0125a:14
#01558:000000000054
#0165a:14
#0165b:000000000000000000000013000000000000630000000000
#01658:000000000000530000000000000000000000000000000013
#01755:000000630000000000000000000000000000000000000013
#01752:00000053
#01855:000000000000630000000000000000000000000000000013
#01852:000000000000000000000013000000000000530000000000
#02055:000000000000630000000000000000000000000000000013
#02052:000000000000000000000013000000000000530000000000
#02158:000000530000000000000000000000000000000000000013
#0215b:00000063
#02258:000000000000530000000000000000000000000000000013
#0225b:000000000000000000000013000000000000630000000000
#01955:000000000000630000000000000000000000000000000013
#01952:000000000000000000000013000000000000530000000000
#0195b:000000000000630000000000000000000000000000000013
#01958:000000000000000000000013000000000000530000000000
#0235b:000000000000000000000013000000000000630000000000
#02358:00530000
#02352:00530000
#02355:000000000000000000000013000000000000630000000000
#04252:1c
#04456:00540000
#04754:0014
#0475a:0014
#05056:54
#04852:14
#04858:14
#0485a:0014
#04854:0014
#03652:000000000000000000000000000000000000000000000013
#0365b:000000000000000000000013000000000000000000000000
#03458:000000000000000000000013000000000000000000000000
#03452:000000000000000000000000000000000000000000000014
#0355a:000000000000000000000014000000000000000000000000
#03552:000000000000000000000000000000000000000000000013
#03758:000000000000000000000000000000000000000000000013
#0375b:0063000000000000
#03855:000000000000000000000013000000000000000000000000
#0385a:000000000000000000000000000000000000000000000014
#0395a:00640000
#03954:0014
#03952:00540000
#03958:0014
#02452:13
#02458:13
#02859:12
#00552:0014
#00652:0014
#0065a:14
#00756:0064000000000000
#003360:12
#003320:0022
#007360:0014000000000000
#007370:0022
#015380:000000000014
#0163a0:24
#016380:00130000
#0163b0:000000000000000000000023000000000000000000000000
#0163b0:00000013
#016380:000000000000000000000000000000000000000000000023
#017350:0013000000000000
#017320:0023
#017320:00000013
#017350:000000000000000000000000000000000000000000000023
#018350:00130000
#018320:000000000000000000000023000000000000000000000000
#018320:00000013
#018350:000000000000000000000000000000000000000000000023
#019350:00130000
#019320:000000000000000000000023000000000000000000000000
#0193b1:00130000
#019381:000000000000000000000023000000000000000000000000
#019321:00000013
#019351:000000000000000000000000000000000000000000000023
#019380:00000013
#0193b0:000000000000000000000000000000000000000000000023
#020350:00130000
#020320:000000000000000000000023000000000000000000000000
#020320:00000013
#020350:000000000000000000000000000000000000000000000023
#021380:0013000000000000
#0213b0:0023
#0213b0:00000013
#021380:000000000000000000000000000000000000000000000023
#022380:00130000
#0223b0:000000000000000000000023000000000000000000000000
#0223b0:00000013
#022380:000000000000000000000000000000000000000000000023
#023380:00130000
#0233b0:000000000000000000000023000000000000000000000000
#023321:00130000
#023351:000000000000000000000023000000000000000000000000
#023351:00000013
#024321:23
#0233b0:00000013
#024380:23
#031360:14
#032320:2c
#033320:0013000000000000
#033350:0023
#0373b0:0013000000000000
#037380:0023
#039320:00140000
#039340:0024
#0393a1:00140000
#039381:0024
#041361:14
#042321:2c
#0433a1:000014343434343434343434
#0443a1:343434000000000000240000
#044361:00340000
#049361:0014003400340034
#050361:34
#051371:22
#000980:1200000000000052
#0009a0:00000000520000000052000052000000
#000990:000000000000000052000052000000000000000000000000
#001980:22
#001961:12
#001941:000000520000005200520000
#001951:000000000000000052000052000000000000000000000000
#002961:22
#002980:1200000000000052
#0029a0:00000000520000000052000052000000
#002990:000000000000000052000052000000000000000000000000
#003980:22
