This file was generated by Ched 2.7.0.0.
#TITLE ""
#ARTIST ""
#DESIGNER ""
#DIFFICULTY 0
#PLAYLEVEL
#SONGID ""
#WAVE ""
#WAVEOFFSET 0
#JACKET ""
#REQUEST "ticks_per_beat 480"
#00002: 4
#BPM01: 103
#00008: 01
#TIL00: ""
#VOLUME: ""
#HISPEED 00
#MEASUREHS 00
#00418:00000014
#00412:2414
#0041a:00140000
#00410:41
#00514:1414
#00518:00140000
#0051a:00000014
#00618:00000014
#00612:1414
#0061a:00140000
#0031a:00000014
#00312:14
#01218:2414
#01212:00140014
#0161a:0014000000000000
#01614:26140000
#01618:00001414
#01612:0000000000140000
#01610:41
#04618:0000000000000014
#04612:14000014
#0461a:00141400
#04614:0000001400000000
#04714:1400140000000014
#0471a:0014000000001400
#04718:0000001400000000
#04712:0014
#0131a:1414
#01314:00140014
#01412:14
#0141a:14
#01714:0014000000000000
#01716:00000014
#03318:00000014
#03314:0014000000000000
#0331f:11
#0331a:24
#0341a:0014000014000000
#03412:1400000000140000
#03418:00000014
#03414:00140000
#03618:0014000000001400
#03614:0000140000140000
#0361a:0014
#03612:24
#03712:14000014
#03718:0014000000000000
#0421a:14
#04215:0014000000000000
#04219:00140000
#04214:0000001400000000
#04218:0014
#04213:0000000000140000
#04217:00000014
#04212:0000000000000014
#04210:41
#04316:14
#04312:00240014
#04315:0014
#0451a:00140000
#04516:0014
#04512:00000014
#04518:0000000000000014
#04412:00140000
#04415:14
#01912:0014
#01918:0000140000140000
#01914:0014000000001400
#0191a:14
#0181a:14140000
#01814:0014000000000000
#01812:00001414
#01818:0000000000140000
#02012:0014000000000000
#02018:24140000
#02014:00001414
#0201a:0000000000140000
#02118:0014000000000000
#02116:00000014
#0231a:0014
#02314:0000140000140000
#02318:0014000000001400
#02312:14
#02212:14140000
#02218:0014000000000000
#0221a:00001414
#02214:0000000000140000
#02210:41
#03514:14
#0351a:0014000000001400
#03512:0000140000140000
#03518:0014
#03812:0014000014000000
#0381a:1400000000140000
#03814:00000014
#03818:00140000
#03918:14
#03912:0014000000001400
#0391a:0000140000140000
#03914:0014
#05014:14
#0481a:14
#04812:00141400
#04818:0000001400001400
#04814:0000000000000014
#04918:14
#0401a:14
#00812:24
#0081a:24
#0111a:24
#01114:00000024
#01112:24
#00918:24
#00914:0024000000000000
#01014:24
#01018:0024000000000000
#01010:41
#03216:28
#01512:26
#0411f:21
#02514:00340000
#02414:00340034
#02718:00340000
#02618:00340034
#02912:00340000
#02812:00340034
#02810:41
#0301a:00340034
#05112:53
#03256:18
#01654:16
#00352:54
#00852:14
#0085a:14
#01754:0064000000000000
#03652:14
#04352:00540054
#04355:0064
#04452:00540000
#04455:64
#02158:0054000000000000
#02058:14
#03758:0054000000000000
#03354:0064000000000000
#0335a:14
#05054:64
#0405a:64
#04156:14
#000380:14000024
#001340:14000024
#0023a0:14000024
#003320:14
#003340:0024
#007340:1424
#015320:163636003636360000360000
#016340:26
#017340:1434000000000000
#017320:0024
#021380:1434000000000000
#0213a0:0024
#024340:14340034
#025340:00340000
#025320:00000024
#026380:14340034
#027380:00340000
#0273a0:00000024
#028320:14340034
#029320:00340000
#029340:00000024
#0303a0:14340034
#031380:34
#032360:28
#033340:0014000000000000
#033320:0024
#037380:0014000000000000
#0373a0:0024
#0403a0:14
#041360:24
#043320:00140034
#043350:0034
#044350:34
#044320:00340000
#045360:24
#049340:0014000000000000
#050340:34
#051320:23
