This file was generated by Ched 2.7.0.0.
#TITLE ""
#ARTIST ""
#DESIGNER ""
#DIFFICULTY 0
#PLAYLEVEL
#SONGID ""
#WAVE ""
#WAVEOFFSET 0
#JACKET ""
#REQUEST "ticks_per_beat 480"
#00002: 4
#BPM01: 220
#00008: 01
#TIL00: ""
#VOLUME: ""
#HISPEED 00
#MEASUREHS 00
#0011a:14
#00214:14
#00318:14
#00614:14
#00718:14
#00812:14
#0101a:14
#01114:14
#01214:14
#02314:14
#02418:14
#03118:14
#03214:14
#0331a:14
#03310:41
#03414:14
#03518:14
#03514:0014
#03618:14
#03712:14
#03818:14
#03914:14
#03918:0014
#04014:14
#04112:0016
#04118:26
#04218:16
#04312:16
#04318:0016
#04412:16
#04518:16
#04512:0016
#04510:41
#04618:16
#04712:16
#04718:0016
#04812:16
#05812:14
#05918:14
#06014:14
#0611a:14
#06212:14
#06318:14
#06414:14
#08118:16
#08112:0026
#0811f:00210000
#08312:16
#08318:0016
#08310:41
#1001a:14
#10112:14
#10212:14
#10318:14
#10418:14
#10514:14
#10614:14
#00412:14
#0051a:14
#01318:14
#01418:14
#01512:14
#01612:14
#04918:2616
#05018:16
#05112:1616
#05212:16
#05318:1616
#05418:16
#05512:1616
#05612:16
#08518:16
#08512:0016
#08712:16
#08718:0016
#08918:2616
#09112:1616
#09318:1616
#09512:1616
#09718:16
#09712:0016
#09818:16
#09812:0016
#0651f:11
#0091a:24
#00910:41
#0571a:24
#05710:41
#07914:24
#09918:26
#02110:41
#017380:14
#018380:24
#019340:14
#020340:24
#0213a0:14
#0223a0:24
#025320:14
#026320:24
#0273a0:14
#0283a0:24
#029340:14
#030340:24
#0653a0:14
#066380:24
#067320:14
#068340:24
#069380:14
#0703a0:24
#071340:14
#072320:24
#0733a0:14
#074380:24
#075320:14
#076340:24
#077380:14
#0783a0:24
#079340:14
#080320:24
#082380:1626
#084320:1626
#086380:1626
#088320:1626
#090380:1626
#092320:1626
#094380:1626
#096320:1626
#107380:14
#1083a0:34343424
