This file was generated by Ched 2.7.0.0.
#TITLE ""
#ARTIST ""
#DESIGNER ""
#DIFFICULTY 0
#PLAYLEVEL
#SONGID ""
#WAVE ""
#WAVEOFFSET 0
#JACKET ""
#REQUEST "ticks_per_beat 480"
#00002: 4
#BPM01: 220
#00008: 01
#TIL00: ""
#VOLUME: ""
#HISPEED 00
#MEASUREHS 00
#06517:12
#06514:22000012
#0651a:0012
#0651f:11
#08215:00130000
#0821b:0013
#08218:0000001300000000
#08212:00001414
#0821a:00000014
#08216:0000000000000014
#08214:18
#0171a:14
#01718:00130013
#0171b:0013
#01712:1413
#0311a:14
#03118:00130013
#03115:0013
#03112:14
#0321a:14
#03215:00131300
#03218:0000001300001300
#03212:14000013
#03316:13
#0331b:2313
#03315:00000013
#03312:00130000
#03310:41
#0371b:0000001300000000
#03717:13
#03712:23000013
#0381b:13000013
#03817:00130000
#03819:0013
#03812:00130000
#03814:0013
#03816:00000013
#04019:00150000
#04018:00001614
#04012:14151600
#04014:00000014
#04318:00000013
#04315:0000000000000013
#04312:24140000
#04316:24142400
#0431a:0024
#04415:0013000000000013
#04418:00130013
#0441b:0023
#04412:0023
#0451b:1300001300000000
#04515:0016
#04518:0000000000000013
#04512:13
#04510:41
#04618:00130013
#04615:0000001300000000
#0461b:0000000013000033
#04612:26001313
#05415:00130000
#0541b:13
#05418:0013000013000000
#05412:0000001300001300
#05414:0000000000000053
#06112:0000000000000013
#0611b:1313001300000000
#06116:2414001400000000
#06118:0000000000130000
#06115:00000013
#06218:0000131300000000
#06216:15
#06212:1300001500000000
#06215:0000000000131300
#06219:00000015
#06312:1400000000140014
#06317:14
#0631a:0000001400000000
#06316:00001414
#10215:1300000000000013
#10218:0013000014001300
#10212:00140000
#1021a:00140000
#10214:0014
#1031b:1300000000130000
#10312:24130000
#10317:0000001300000000
#10316:00000013
#1041b:1300001300000000
#10412:0013000000001300
#10418:0000000013000013
#10415:0000000000130000
#0011b:13000013
#00118:00130000
#00112:1313
#00115:0000130000000013
#00218:13130000
#00212:0013000000000000
#00215:0000001300000000
#0021b:0013
#00214:00000014
#0021a:00000014
#00219:0000000000000054
#00213:0000000000000054
#00416:1414
#00414:00000014
#00418:00000014
#00518:00000013
#00515:0000000000000013
#0061b:13
#00618:00130000
#00615:0013
#00612:00000013
#0071a:14
#00718:00000013
#00715:0000000000000013
#01614:00000013
#01619:00000013
#01618:1313
#01612:00130000
#01615:13
#01812:14130000
#01815:0013
#01818:00000013
#0181a:14
#02015:00130000
#0201b:0013
#02018:00000013
#02012:1413
#0201a:14
#02216:00000014
#0221a:14
#02212:14
#02312:1413
#02319:00130013
#02317:0013
#0231a:14
#02418:0000000013130000
#0241a:14
#02412:14
#02415:00130013
#0261a:14
#02618:00140000
#02616:0014
#02614:00000014
#02812:14
#02814:00140000
#02816:0014
#02818:00000014
#0281a:14
#03418:13
#03416:00130000
#0341b:00130000
#03414:0013
#03419:0013
#03412:00000013
#03417:00000013
#03512:13
#0361b:13000013
#03617:00130000
#03612:0013
#03616:00000013
#03916:00130000
#03912:13
#03917:13000013
#0391b:0013
#03919:00130000
#03914:00000013
#04215:00130000
#04218:1600001300000000
#04212:0013
#0421b:0013
#0421a:00000014
#04216:00000014
#04715:1300001300000013
#04718:00130013
#0471b:0013
#04712:0000000000130000
#04812:00260013
#0481b:00000013
#04814:0024
#04818:00262400
#05018:00130000
#05015:0000001300000000
#0501b:0013
#05012:16001314
#05016:00000014
#0501a:0000000000000034
#05116:24142400
#0511a:00140000
#05115:00000013
#05118:0000000000000013
#05112:0000003400000000
#05218:0013000000000013
#05215:00130013
#05212:0023
#0521b:0023
#05312:1300001300000000
#0531b:1313
#05315:0000000000130013
#05318:00000013
#0551b:13130000
#05512:00001313
#05516:53
#05519:0000005300000000
#05517:0053
#05514:0000000000000053
#0571b:0000131300000000
#05712:00001313
#05718:0000000000130000
#0571a:0000000000000014
#05715:00130000
#05710:41
#05812:0013000013000013
#05818:0000130000131300
#05815:00000000000013000000001300000000
#0581b:0013000013000000
#0591a:1414000000001414
#05912:0000001414000000
#05915:0013000000000000
#05918:0013
#06416:1400131300000000
#0641a:0000001400000000
#06412:0000000000141400
#06417:0000000000131300
#06614:12
#06616:00000012
#06618:0000000000000012
#06814:00121200
#06818:0000000000120012
#06816:00000012
#0681a:12
#0691a:12
#06917:0012
#06914:12000012
#07014:12
#0701a:00121200
#07016:0000000000120012
#07018:00000012
#07116:00120000
#07118:0000001200000000
#0711a:2313
#07113:2313
#07117:00000012
#07213:13
#0721a:13
#07418:00000012
#07416:0000000000000012
#07414:12
#07614:00121200
#07618:0000000000120012
#07616:00000012
#0761a:12
#07716:0014
#0771a:12
#07714:1200000000000012
#07814:12
#07816:00141400
#07813:0000000000130013
#0781a:00000013
#08114:00000014000000000000000000000000
#08118:26000014000000000000000000000000
#08116:0018
#08112:2600000000000013
#0811f:00210000
#08318:0000000000130013
#08315:00000013
#08312:24142400
#08316:0000001400000000
#0831a:24141400
#08310:41
#08418:0013000000001300
#08412:00132400
#0841b:00130000
#08415:130000000000000000000000000000000000000000000000000000000000000000000000000000000000000000000000000000000000000000000000000000000000000000000000000000000000000000000000000000000000000000000000000000000000000000000000000000000000000000000000000000000000000000000000000000000000000000000000001400000000000000000000000000000000000000000000000000000000000000000000000000000000000000000000000000000000000000000000000000000000000000000000000000000000000000000000000000000000000000000000000000000000000000000000000000000000000000000000000000000000000000000000000000000000000000000000000000000000000000000000000000000000000000000000000000000000000000000000000000000000000000000000130000000000000000000000000000000000000000000000000000000000000000000000000000000000000000000000
#08417:0000001400000000
#0841a:0024
#08519:0000001300000000
#08512:1318
#0851b:0000000000000013
#0851a:14
#08618:00130013
#08615:0000001300000000
#08619:0015
#08612:00001314
#08614:28
#0861b:0000000000000033
#08715:1400001300130000
#08718:00130013
#08712:0013
#0871b:0000000000000013
#0871a:0014
#08816:00000014
#08812:0024
#0881a:0024
#08815:00260000
#09118:00000013
#09115:0000000000000013
#09116:24142400
#0911a:2400001400000000
#09112:00142400
#09215:0013000000001300
#09218:0000160000000013
#09212:00162400
#0921a:0024
#09312:1313
#0931b:1313
#09318:0000001300001300
#09315:0000000000130013
#0951b:13130000
#09512:00001313
#09516:53
#09519:0000005300000000
#09517:0053
#09514:0000000000000053
#09016:00000014
#09012:0000000013000014
#0901a:00001414
#09018:00130000
#09015:0000001300000000
#09014:18
#09612:0014
#0961a:0014
#09614:0000000000001414
#0961b:13
#09616:53240000
#09718:1400000000140000
#0971a:0014
#09712:0000141400000000
#09716:00000014
#09714:0000000000000014
#0981a:14000064
#09812:14140000
#09814:00006464
#09818:00646400
#0991b:0000000000130013
#09915:00130013
#09918:0000001300000000
#09912:24
#0991a:64
#10016:0014000000000000
#10012:2400140000000014
#10014:0000000000140000
#10018:00000014
#1001a:0024
#10112:00531300
#10117:00531300
#1011b:13000053
#10116:13000053
#10512:13
#10518:00130000
#10515:0000001300000000
#10615:16
#10612:00000023
#1061b:00000023
#10718:12
#10716:12
#1071a:0000003200000000
#10814:12
#10815:0000005200520052
#10816:00525252
#0191a:14
#01912:14
#01916:00000014
#00812:1313
#00818:0013000000000000
#00815:00130000
#0081b:0000001300000000
#00312:54140000
#00318:54140000
#00313:0000005400000000
#00314:0054
#00319:0000005400000000
#0031a:0054
#02112:14
#0211a:14
#02116:00000014
#02110:41
#02712:14
#0271a:14
#02718:0000001400000000
#02716:00000014
#0291a:14
#02912:14
#02914:0000001400000000
#02916:00000014
#0301a:14000014
#03012:14
#03016:0000001400000000
#06012:0000000014000014
#0601a:00000014
#06018:0000141400000000
#06014:1414000000000000
#06016:0000000000140000
#09412:0000002300001300
#0941b:23
#09418:0023000026000000
#09415:00230000
#09414:0000000000000053
#0561b:13
#05616:5324
#04112:2400001300000000
#04115:0000000016000013
#0411a:24
#0491b:0000001300000000
#04915:0016
#04918:0000000000000013
#0491a:24
#04912:24
#08919:0000001300000000
#08912:2418
#0891b:0000000000000013
#0891a:24
#06717:12
#0671a:12000012
#06714:0012
#07514:1212
#07516:00130013
#07518:12
#0751a:00000012
#02512:13
#01218:1300000014000013
#01215:0013000000001300
#0121a:00140000
#01214:0014
#01212:00140000
#01312:1300000000130000
#0131b:00130000
#01316:0000001300000000
#01317:00000013
#0131a:24
#01412:1300001300000000
#0141b:0013000000001300
#01415:0000000013000013
#01418:0000000000130000
#00912:2400000000130013
#00918:00130013
#00915:0000001300000000
#0091a:24
#00910:41
#01016:0014000000000000
#0101a:2400140000000014
#01018:0000000000140000
#01014:00000014
#01012:0024
#01112:13000053
#0111b:00531300
#01117:13000053
#01116:00531300
#0151b:13
#01515:00130000
#01518:0000001300000000
#0731a:1212
#07317:00130013
#07316:12
#07314:00000012
#0791a:2300330033003333
#06557:62
#0655a:0062
#06657:12
#06654:12
#08053:1a
#0795a:53
#0325a:14
#03252:14
#03356:53
#03352:00230000
#0375b:0000002300000000
#03757:63
#04152:14
#0415a:14
#04155:0046
#07255:0013
#07258:0013
#07253:53
#0725a:53
#0015b:53
#00158:00530000
#0045a:14
#00456:1414
#00452:0014
#00454:00000054
#00458:00000054
#0055a:14
#00552:14
#0075a:14
#0365b:53
#03657:00230000
#03956:00230000
#03952:53
#03957:00000023
#0395b:0063
#04052:0016
#04058:00001654
#04054:00000054
#04352:14640000
#04356:1414
#0435a:0014
#0425a:00000054
#04258:46
#0445b:0013
#04458:00630000
#04452:0013
#04555:0036
#04658:00000053
#04652:36
#04852:00160000
#04858:00161400
#04854:0014
#05056:00000054
#05052:36
#05156:14641400
#0515a:14
#05152:0014
#05255:00530000
#05252:0013
#0525b:0013
#05556:13
#0555b:13
#05552:0013
#05557:0013
#05752:1c
#0575a:0000000000000014
#06456:54
#0695a:52
#06957:0052
#0705a:12
#07054:12
#07153:1313
#0715a:1313
#0775a:52
#07756:0024
#0785a:42
#08154:00000024000000000000000000000000
#08158:56000024460000000000000000000000
#08156:0048
#08152:56360000
#08552:0038
#0825a:00000054
#08256:0000000000000024
#08254:48
#0845b:00530000
#08457:0000002400000000
#08455:000000000000000000000000000000000000000000000000000000000000000000000000000000000000000000000000000000000000000000000000000000000000000000000000000000000000000000000000000000000000000000000000000000000000000000000000000000000000000000000000000000000000000000000000000000000000000000000000002400000000000000000000000000000000000000000000000000000000000000000000000000000000000000000000000000000000000000000000000000000000000000000000000000000000000000000000000000000000000000000000000000000000000000000000000000000000000000000000000000000000000000000000000000000000000000000000000000000000000000000000000000000000000000000000000000000000000000000000000000000000000000000000000000000000000000000000000000000000000000000000000000000000000000000000000000000000000000000000
#08452:00633400
#0845a:0044
#08658:00000053
#08654:38
#0955b:13
#09552:0013
#09556:13
#09557:0013
#08852:0014
#0885a:0014
#08855:00160000
#08352:00643400
#08356:0000002400000000
#0835a:44
#09056:00000054
#09052:0000000000000024
#09054:38
#0915a:1400002400000000
#09156:14641400
#09152:0014
#09258:00660000
#0925a:0014
#09252:00561400
#09458:0046
#09952:14
#0995a:14
#10052:00140000
#10152:0053
#10157:0053
#1015b:63
#10156:53
#1025a:00140000
#10252:00140000
#10254:0014
#10258:0014
#1035b:63
#10356:00000063
#10552:53000013
#1055b:00000013
#10652:00000013
#1065b:00000013
#10655:26
#1085a:12
#10854:12
#10758:52
#0185a:14
#0205a:14
#0225a:14
#0245a:14
#02752:24
#02758:0000005400000000
#0275a:14
#0295a:24
#02954:0000006400000000
#02952:14
#0965b:13
#09656:13
#05656:13
#0565b:13
#01952:14
#02152:14
#02352:14
#02652:13
#0285a:14
#0305a:14
#03152:14
#04955:0036
#08952:0038
#01752:14
#06757:52
#06754:0052
#0685a:12
#06857:12
#07554:6262
#07556:00230023
#0765a:42
#07654:32
#05458:0013
#01652:00230000
#01658:13
#01655:63
#01254:0014
#01258:0014
#01252:00140000
#0125a:00140000
#0105a:00140000
#01152:53
#0115b:0063
#01157:63
#01156:0063
#01352:53
#01357:00000053
#0155b:63000013
#01552:00000013
#0735a:5252
#07357:00230023
#07454:32
#0745a:42
#0013b0:1323
#001380:00330000
#0033a0:00000014
#0043a0:24
#004320:00142400
#004380:00000014
#0053a0:24
#004341:00000014
#005321:24
#007321:00001323
#011321:13
#011361:00230000
#0113b1:0013
#011371:00000023
#013321:13
#013361:00230000
#013371:00000013
#0143b1:23
#0153b1:13
#015381:00230000
#0153b1:00001323
#015320:00001323
#016350:1323
#016320:00530000
#0253b0:13230000
#025351:00132300
#025380:00001323
#025321:00000013
#026321:23
#027321:14
#027341:0000002400000000
#027380:0000001400000000
#0273a0:00000024
#0293a0:14
#029380:0000002400000000
#029341:0000001400000000
#029321:00000024
#033361:1323
#033321:00530000
#0353b1:13230000
#035350:00132300
#035381:00001323
#035320:00000013
#036320:23
#0363b1:1323
#036371:00530000
#037371:13000023
#0373b1:0000005300000000
#039321:1323
#039361:00330000
#0393b0:0013
#039370:00000033
#0403a0:24
#040340:00000014
#041320:24
#040381:00000014
#0413a1:24
#0423a1:00000014
#043361:24
#043321:00140000
#043361:0024
#044381:00130000
#0443b1:0023
#046381:00000013
#0463b1:0000000000000033
#0473b1:23
#048321:13260000
#0483b0:13
#048380:00260000
#050360:00000014
#0503a0:0000000000000034
#0513a0:24
#051360:00140000
#051320:0000003424000000
#052350:00130000
#052320:0023
#056360:0014
#057320:2c
#064360:14
#0643a0:00240000
#065370:1200000000520000
#0653a0:0052000032000000
#066370:22
#067370:1200000000520000
#067340:0052000032000000
#068370:22
#0693a0:1200000000520000
#069370:0052000032000000
#0703a0:22
#072330:13
#072350:00532300
#0723a1:13
#072381:00532300
#0733a1:1232
#073371:00530053
#0743a1:22
#075341:1232
#075361:00530053
#076341:22
#0773a1:12
#077361:0054
#0783a1:22
#0793a1:1300330033003333
#080331:2a
#081321:16260000
#081341:00540054000000000000000000000000
#081380:16540054260000000000000000000000
#0823a0:00000014
#082360:0000000000000054
#0833a0:24
#083320:00142400
#083360:0000005400000000
#0843b0:00130000
#084370:0000005400000000
#0843a0:0024
#084321:00132400
#084351:000000000000000000000000000000000000000000000000000000000000000000000000000000000000000000000000000000000000000000000000000000000000000000000000000000000000000000000000000000000000000000000000000000000000000000000000000000000000000000000000000000000000000000000000000000000000000000000000005400000000000000000000000000000000000000000000000000000000000000000000000000000000000000000000000000000000000000000000000000000000000000000000000000000000000000000000000000000000000000000000000000000000000000000000000000000000000000000000000000000000000000000000000000000000000000000000000000000000000000000000000000000000000000000000000000000000000000000000000000000000000000000000000000000000000000000000000000000000000000000000000000000000000000000000000000000000000000000000
#086381:00000013
#0863b1:0000000000000033
#0873b1:23
#088361:14
#088351:00260000
#090361:00000014
#090321:0000000000000034
#091361:24
#091361:00142400
#0913a1:0000003400000000
#092381:00160000
#0923a1:00000000005400002400000000000000
#092320:00000000165400002400000000000000
#1013b0:13
#101370:00230000
#101320:0013
#101360:00000023
#1033b0:13
#103370:00230000
#103360:00000013
#104320:23
#105320:13
#105350:00230000
#105320:00001323
#1053b1:00001323
#106351:16
#106321:002c
#107381:12
#1073a1:0000003200003200
#1083a1:22
#0029a0:00000014
#003980:24
#002941:00000014
#003921:24
#003921:00140000
#003941:0024
#003980:00140000
#0039a0:0024
#011970:13
#0119b0:00230000
#011960:0013
#011920:00000023
#054920:00000013
#055960:23
#0559b0:00130000
#055970:0023
#055920:00000013
#056960:23
#094920:00000013
#095960:23
#0959b0:00130000
#095970:0023
#095920:00000013
#096960:23
#098980:00142400
#098941:00001424
#0989a0:00000014
#0999a0:24
#101960:13
#101920:00230000
#101970:0013
#1019b0:00000023
#108960:00125252
#108950:0000005200520022
