This file was generated by Ched 2.7.0.0.
#TITLE ""
#ARTIST ""
#DESIGNER ""
#DIFFICULTY 0
#PLAYLEVEL
#SONGID ""
#WAVE ""
#WAVEOFFSET 0
#JACKET ""
#REQUEST "ticks_per_beat 480"
#00002: 4
#BPM01: 220
#00008: 01
#TIL00: ""
#VOLUME: ""
#HISPEED 00
#MEASUREHS 00
#08112:1300000000000013
#0811b:0013
#08115:0000001300000000
#08118:00240000
#0811f:00210000
#06515:13
#06512:0013
#0651f:11
#08215:00131300
#08218:1300001300000000
#0821b:00000013
#09812:13000066
#09818:00565600
#0031a:1414
#00316:00140014
#00312:14
#00116:00140014
#0011a:1414
#00112:14
#00212:1414
#00216:00140014
#0021a:14
#00412:1414
#00416:00140014
#0041a:14
#00512:14
#0051b:00000013
#00615:1313
#00618:00130013
#00712:1314
#0071a:0014
#00915:00130000
#00918:0013
#00912:00000013
#0091b:23
#00910:41
#0101b:13130000
#01015:0013000000000000
#01012:00001313
#01018:0000000000130000
#0111b:13
#01112:00130013
#01118:0013
#01218:13000013
#01215:0013000000000013
#0121b:00130000
#01212:0013
#0131b:13
#01312:00130000
#01318:0013
#01315:00000013
#0141b:13
#01412:00130000
#01418:00001313
#01415:0000000000130013
#0151b:13000013
#01512:00130000
#01518:0000001300000000
#01515:00001313
#01612:13
#01618:13
#0201b:13
#02212:13
#01918:13
#01912:13
#02115:13
#0211b:13
#02110:41
#02318:00130000
#02312:13
#02315:0013
#0231b:00000013
#02418:00000013
#02412:13
#02415:00130000
#02512:13
#0251b:00130000
#02515:0013
#02518:00000013
#02612:13
#02615:00130000
#0261b:00000013
#02618:0013
#02712:13
#02715:00000013
#0281b:13
#02818:00130000
#02815:0013
#02812:00000013
#0291b:13
#02915:00000013
#03018:13
#03012:00000013
#0311b:13
#03118:00130000
#03115:0013
#03112:00000013
#0321b:13000013
#03215:00131300
#03218:0000001300000000
#03315:13
#0331b:00000013
#03310:41
#03412:13
#03415:00130000
#03418:0013
#0341b:00000013
#03512:13
#03515:00130000
#0351b:0013
#03518:00000013
#03615:13000013
#03618:0013
#03718:0000001300000000
#0371b:13
#03812:13
#03815:00130000
#03818:0013
#0381b:00000013
#03918:13
#03912:00130000
#0391b:0013
#03915:00000013
#04118:0000001300000013
#04115:0013
#0411a:24
#04112:24
#0421b:00131300
#04215:1300001300000000
#04212:00000013
#04218:0000000000000013
#04312:23000013
#04318:0000000000000013
#0431b:00132300
#04315:0000001300000000
#04412:00130000
#04415:13000013
#04418:0000000000000013
#0441b:0013000023000000
#04518:0000001300000013
#04515:1313
#04510:41
#0461b:00131300
#04612:00000013
#04615:2300001300000000
#04618:0000000000000013
#04712:1300000000130000
#0471b:00130013
#04718:0013
#04715:0000001300000013
#04818:13
#0481b:00332300
#05712:00130000
#05718:0013
#05715:00000013
#05716:24
#05710:41
#0581b:13
#05812:00130000
#05815:0013
#05818:00000013
#05912:13
#0601b:13
#06018:00130000
#06015:0013
#06012:00000013
#06115:00130000
#06118:0013
#06112:00000013
#0611b:23
#0621b:13
#06212:00130000
#06218:0013
#06215:00000013
#0631b:13
#06312:13
#06315:0013
#06318:00000013
#06415:00130000
#06418:0013
#0641b:00000013
#06412:23
#06718:13
#0671b:0013
#06912:13
#06915:0013
#07312:13
#07315:0013
#07318:13
#0731b:0013
#0751b:13
#07518:0013
#07515:13
#07512:0013
#07715:13
#07718:13
#08312:00130013
#08315:0013
#08318:2300001300000013
#0831b:0000000000130000
#08310:41
#08512:0000001300000000
#08518:0013
#08515:0000000000000013
#0851b:13
#08612:00130000
#08615:0000000013000013
#0861b:23000013
#08618:0000001300000000
#08718:1300001300000013
#08715:00130013
#08712:0013
#0871b:0000000000130000
#09218:00000013
#09215:1300000023000013
#09212:00130000
#0931b:13000013
#09318:0013
#09312:0000001300000013
#09315:0000000000130000
#09412:00000014
#09416:0000000000000014
#09418:24242400
#09414:0024002400000000
#09512:14000014
#0951a:00141400
#09516:0000001400000014
#09612:14
#0961a:00000014
#09616:0000000000000014
#0971a:14
#09712:00130000
#09718:0000001300000013
#09715:00001313
#0971b:0000000000130000
#09918:00130000
#09915:0013
#0991b:00000013
#09912:66
#10018:0013000024000000
#10012:00130000
#10015:0000000000130000
#1001b:00000013
#10014:24
#10112:13
#10115:00130000
#1011b:0013
#10118:00000013
#10215:13000013
#10218:0013000000000013
#10212:00130000
#1021b:0013
#10318:00130000
#10315:0013
#1031b:00000013
#10312:24
#10412:13
#1041b:00130000
#10415:00001313
#10418:0000000000130000
#1051b:13
#10512:00130000
#10515:0013
#10518:0000001300001300
#1071a:12
#10717:0000003200000000
#08418:00000013
#08415:0000130000000013
#08412:1323
#0711b:13
#07118:0013
#08815:1323
#08812:00130000
#09018:00131300
#09015:1300001300000000
#09012:00000013
#08912:2413
#08918:0000001300000000
#0891b:0000000000000013
#0891a:24
#0911b:00130000
#09118:0000000013000013
#09112:00000013
#09115:2300001300000000
#04915:0000001300000013
#04918:0013
#04912:24
#0491a:24
#05012:00131300
#05018:1300001300000000
#0501b:00000013
#05015:0000000000000013
#0511b:23000013
#05115:0000000000000013
#05112:00132300
#05118:0000001300000000
#0521b:00130000
#05212:0013000013000000
#05218:13000013
#05215:0000000000000013
#05315:0000001300000013
#05318:1313
#05312:0000000000130000
#0531b:00000013
#05418:1300000000000013
#05415:00000013
#0541b:00330000
#05518:0000130000000013
#0551b:0013
#05512:13000013
#05515:0000001300000000
#05615:13
#0561a:0014
#10612:14
#1061a:14
#10618:0000001400000000
#10614:0000001400000000
#01812:13
#01715:13
#0171b:13
#0401a:1414
#04016:00140000
#04012:0014
#0791a:24
#07912:24
#07918:0023
#07915:0023
#10812:00535353
#10813:0000005300530053
#06555:53
#06552:0063
#06655:13
#0805a:14
#08052:14
#0795a:64
#07952:64
#07958:0023
#07955:0023
#00552:14
#00858:14
#00854:14
#01652:53
#01658:53
#0205b:13
#02252:13
#01958:53
#01952:53
#02155:63
#0215b:63
#0325b:13
#03355:53
#03655:13
#03758:0000002300000000
#0375b:53
#0415a:14
#04152:14
#04858:63
#0485b:0013
#05952:53
#06758:63
#0675b:0053
#06858:13
#06952:63
#06955:0053
#07052:13
#07352:63
#07355:0053
#07358:63
#0735b:0053
#07452:13
#07458:13
#0755b:53
#07558:0063
#07555:53
#07552:0063
#0765b:13
#07655:13
#07755:53
#07758:63
#0785b:13
#07852:13
#1075a:62
#10857:12
#02752:13
#0295b:13
#03058:13
#0075a:0054
#00752:0054
#02452:53
#02455:00230000
#0715b:53
#07158:0063
#0725b:13
#08452:5313
#08455:00530000
#08855:6313
#08852:00530000
#0825b:00000053
#09255:5313
#09252:00530000
#09052:00000063
#04952:14
#0495a:14
#05458:53
#0545b:0013
#0565a:0064
#1065a:54
#10652:54
#10658:0000002400000000
#10654:0000002400000000
#05756:14
#01852:13
#01755:63
#0175b:63
#08358:13
#09155:13
#09858:0016
#09952:16
#0073a0:0014
#008380:24
#007321:0014
#008341:24
#016321:13
#016351:00000023
#016380:13
#0163b0:00000023
#017350:13
#017320:0000003300002300
#0173b1:13
#017381:0000003300002300
#019381:13
#0193b1:0000003300002300
#019320:13
#019350:0000003300002300
#021350:13
#021320:0000003300002300
#0213b1:13
#021381:0000003300002300
#024321:1323
#024351:00530000
#033351:13
#033321:0023
#0373b1:13000023
#037381:0000005300000000
#0403a1:00000014
#0413a1:24
#040320:00000014
#041320:24
#048380:13
#0483b0:00332300
#054380:13
#0543b0:00332300
#0563a0:0014
#057360:24
#059320:13
#059350:0000003300002300
#065350:13
#065320:0033
#066350:23
#067380:13
#0673b0:0033
#068380:23
#069320:13
#069350:0033
#070320:23
#0713b0:13
#071380:0033
#0723b0:23
#073320:13
#073350:0033
#074320:23
#073381:13
#0733b1:0033
#074381:23
#0753b1:13
#075381:0033
#0763b1:23
#075350:13
#075320:0033
#076350:23
#077350:13
#078320:23
#077381:13
#0783b1:23
#079321:14
#079351:0053
#080321:24
#0793a0:14
#079380:0053
#0803a0:24
#0823b0:00000013
#083380:23
#084320:1323
#084350:00330000
#088350:1323
#088320:00330000
#090320:00000013
#091350:23
#092350:1323
#092320:00330000
#1063a0:14000024
#106380:0000005400000000
#106321:14000024
#106341:0000005400000000
#1073a1:12
#107371:0000003200003200
#108371:22
#098980:000000000000000000000000000000000000000000000000000000000000000000000000000000000000000000000000000000000000000000000000160000000000000000000000000000000000000000000000000000000000000000000000000000000000000000000000000000000000000000000056260000000000000000000000000000000000000000000000000000000000000000000000000000000000000000000000000000000000000000000000000000000000000000000000000000000000000000000000000000000000000000000000000000000000000000000000000000000000000000000000
#098920:000000000000000000000000000000000000000000000000000000000000000000000000000000000000000000000000000000000000000000000000000000000000000000000000000000000000000000000000000000000000000000000000000000000000000000000000000000000000000000000000000000000000000000000000000000000000000000000000000000000000000000000000000000000000000000000000000000000000000000000000160000000000000000000000000000000000000000000000000000000000000000000000000000000000000000000000000000000000000000000056
#099920:26
#108920:00135353
#108930:0000005300530023
