This file was generated by Ched 2.7.0.0.
#TITLE ""
#ARTIST ""
#DESIGNER ""
#DIFFICULTY 0
#PLAYLEVEL
#SONGID ""
#WAVE ""
#WAVEOFFSET 0
#JACKET ""
#REQUEST "ticks_per_beat 480"
#00002: 4
#BPM01: 220
#00008: 01
#TIL00: ""
#VOLUME: ""
#HISPEED 00
#MEASUREHS 00
#0011a:14
#00114:0014
#00312:14
#00318:0014
#00818:16
#01012:14
#0101a:0014
#02312:14
#02316:0014
#0311a:14
#03116:0014
#03212:14
#0411a:0014
#04112:24
#05714:0014
#0571a:24
#05710:41
#06018:14
#06012:0014
#0611a:14
#06116:0014
#06314:14
#0631a:0014
#06412:14
#06418:0014
#0811a:14
#08112:0024
#0811f:00210000
#0821a:14
#08214:00140000
#08218:0014
#08312:14
#08316:0014
#08310:41
#0841a:14
#08414:00140000
#08418:0014
#09018:14
#09014:00140000
#0901a:0014
#09114:14
#09112:0014
#09118:00140000
#09812:0016
#09818:16
#1001a:14
#10014:0014
#10118:14
#10112:0014
#1021a:14
#10216:0014
#10312:14
#10316:0014
#10518:14
#10512:0014
#0021a:14
#00618:14
#00614:0014
#00718:14
#00714:0014
#00918:0014
#00912:24
#00910:41
#01114:14
#01118:0014
#01214:14
#0121a:0014
#01312:14
#01318:0014
#01414:14
#01418:0014
#01512:14
#0151a:0014
#01718:14
#0171a:0034
#01914:14
#01912:0034
#0211a:14
#02118:0034
#02110:41
#0241a:14
#02512:14
#02514:0034
#02718:14
#0271a:0034
#02914:14
#02912:0034
#03414:0014
#03518:14
#03512:0014
#0361a:14
#0431a:14
#04316:0014
#05618:0014
#05614:00140000
#0561a:14
#05818:14
#05812:0014
#0591a:14
#05914:0014
#06212:14
#06218:0014
#06514:14
#06512:0014
#0651f:11
#07312:14
#07318:0014
#07412:14
#0751a:14
#07514:0014
#0761a:14
#07719:14
#07713:14
#0781a:14
#07812:14
#08912:0014
#0891a:24
#0971a:14
#09718:0014
#09714:00140000
#09712:00000014
#09914:0014
#09918:26
#1041a:14
#10414:0014
#10618:14
#10714:14
#10712:0000003400003400
#0331a:14
#03318:0014
#03310:41
#03818:0014
#03914:14
#0391a:0014
#04012:14
#04018:0014
#03712:14
#03714:0014
#04412:14
#04416:0014
#04512:0014
#0451a:24
#04510:41
#0491a:0014
#04912:24
#05014:1414
#0501a:00140000
#0511a:14
#05116:0014
#05212:14
#05216:0014
#05312:0014
#0531a:24
#06718:14
#0671a:0014
#06912:14
#06914:0014
#0711a:14
#07118:0014
#0851a:0014
#08512:24
#09218:14
#0921a:0014
#09214:00140000
#09414:14
#09418:00140000
#09412:0014
#09518:14
#0951a:0014
#09514:00140000
#0931a:0014
#09312:24
#09614:14
#09612:0014
#09618:00140000
#04712:14
#04716:0014
#0481a:14
#04816:0014
#05418:1414
#05412:00140000
#05512:14
#05516:0014
#08612:14
#08618:00140000
#08614:0014
#0871a:14
#08716:0014
#08812:14
#08818:00140000
#08814:0014
#04212:1414
#04218:00140000
#0461a:1414
#04614:00140000
#0791a:24
#07912:24
#10812:0000000000000054
#00552:16
#00858:16
#01758:64
#0185a:14
#01954:54
#02052:14
#0215a:54
#02258:14
#02552:64
#02654:14
#02758:64
#0285a:14
#02954:54
#03052:14
#05658:0064
#0575a:14
#06554:54
#06552:0024
#06654:14
#07452:14
#0765a:14
#0785a:14
#07852:14
#0795a:64
#07952:64
#09858:16
#09852:0016
#09958:16
#10658:64
#10754:64
#0335a:54
#03358:0024
#03752:64
#03754:0024
#05054:0014
#06758:64
#0675a:0024
#06858:14
#06952:64
#06954:0024
#07052:14
#0715a:54
#07158:0024
#0725a:14
#0905a:0014
#09452:0014
#05458:0014
#004320:1636
#005320:26
#016340:14
#016320:0024
#017380:14
#0173a0:0034
#0183a0:24
#019340:14
#019320:0034
#020320:24
#0213a0:14
#021380:0034
#022380:24
#025320:14
#025340:0034
#026340:24
#027380:14
#0273a0:0034
#0283a0:24
#029340:14
#029320:0034
#030320:24
#0333a0:14
#033380:0054
#0343a0:24
#037320:14
#037340:0054
#038320:24
#056380:0014
#0573a0:24
#065340:14
#065320:0034
#066340:24
#067380:14
#0673a0:0034
#068380:24
#069320:14
#069340:0034
#070320:24
#0713a0:14
#071380:0034
#0723a0:24
#079320:14
#080340:24
#0793a1:14
#080381:24
#106381:14
#1063a1:00000024
#107341:14
#107321:0000003400003400
#108321:3400343434343424
