This file was generated by Ched 2.7.0.0.
#TITLE ""
#ARTIST ""
#DESIGNER ""
#DIFFICULTY 0
#PLAYLEVEL
#SONGID ""
#WAVE ""
#WAVEOFFSET 0
#JACKET ""
#REQUEST "ticks_per_beat 480"
#00002: 4
#BPM01: 160
#BPM02: 130
#00008: 01
#08208: 0002
#TIL00: ""
#VOLUME: ""
#HISPEED 00
#MEASUREHS 00
#00012:1300000013130000
#00015:00130000
#00018:00260026
#00115:1313001300130000
#00118:00260026
#0021b:1300000013130000
#00218:00130000
#00212:00260026
#00515:13001313
#0051b:00000013
#00512:0000240000130000
#00518:0000000000000013
#0071b:0000000000130000
#00712:00000013
#00715:0000000000000013
#00718:13001313
#0071a:00240000
#00818:1300000000000013
#0081b:00000013
#00815:0013
#00812:00240013
#01118:0000000063000013
#01115:00005313
#01112:0000000000130000
#01215:13000013
#01218:0000130000130000
#0121b:2300000013000013
#01212:0000000000000024
#01315:0013000000000000
#01318:0000130000130000
#01312:0000001300000000
#0131a:0000002400000000
#01418:0000000013130000
#01415:00130013
#01412:2400000000000013
#0141b:0000130000000013
#0141a:24
#01410:41
#02018:0000000000130013
#02016:00130000
#02012:24
#0201a:0000002400000000
#02015:00000023
#0301b:23130013
#03015:0000000000130000
#03018:0000000013000013
#03012:2300000000000013
#03016:00130000
#0301f:11
#03212:13
#0321b:00000023
#03218:23
#0331b:1300000000000013
#03318:0013
#03316:1300000000002313
#03312:0013
#03612:1300000000000013
#0361b:1313
#03615:0000000000130000
#03618:00000023
#03718:1300000000000013
#0371b:0000001300000000
#03715:0000001300002300
#03812:1300000000002414
#0381a:2414000000000000
#03814:0000241400000000
#03818:0000000024140000
#03916:0000240000000013
#0391a:24
#03918:0024002600000000
#03912:0000002600000000
#03919:0000000000000025
#0391f:0000000000000021
#04018:00001313
#04015:0000000000130000
#04012:0000000013000024
#0401b:0000130000000013
#04010:00000041
#0411b:0000000000000013
#04115:0013000000000000
#04118:0000001300240000
#04112:0000000000130000
#0411a:0024000000000000
#04114:0000002400000000
#04116:0000000000000024
#0421b:0000001300000000
#04218:0013
#04215:0000000000130000
#04212:00130013
#04216:0000000000000024
#04412:0000001300000000
#0441b:0000130000000023
#04418:00001313
#04415:0000000000130013
#04517:0013000000000000
#0451b:0000000000130000
#04518:00000013
#04516:0000001300000000
#04512:0023000000001300
#04515:0000000000000013
#0481b:0000000013000023
#04815:1300000000130000
#04818:13000013
#04812:0000240013000023
#0481a:00240000
#0501b:0000001300000023
#05018:0013
#05015:0000000000130023
#05012:00130013
#05212:00131300
#0521b:0000001313000000
#05215:0000000000130000
#05218:00000013
#05216:0000000000000013
#0521a:0000000000000024
#05318:0000000000130013
#05315:00000013
#05317:0013000000000000
#05316:0000001300000000
#05312:0024000000130000
#0531a:0000002400000000
#0561b:1300000013000023
#05612:1300001300000013
#05618:00000013000000000000130000000000
#05615:00000013
#05717:00000000001300000000000000000000
#05712:00000013
#05815:00000013000000000000130000001300
#05812:1313
#0581b:1300001300000013
#05818:00000013
#06019:0013000000000000
#0601b:00130000
#06017:13
#06018:0013
#06015:0000001300000000
#06012:23232323
#0611b:13
#06115:23232323
#06312:0000000000130000
#06314:00000013
#06316:0000000000000013
#06318:23232323
#06418:00130013
#0641b:2300000013000013
#06415:0000000000130000
#06412:1300000013000023
#06517:00000000001300000000000000000000
#06512:00131415
#06616:00130000
#0661b:0000000013000023
#06618:2600000000130000
#06615:00000013
#06612:2600000000000013
#06619:00130000
#06814:0000001200000000
#06816:0012
#06818:0000000000120000
#0681a:00000012
#0681c:1200000000000012
#06812:0000000000000012
#06817:22
#01615:0000000013130000
#01618:00130013
#0161b:0000000000000013
#0161b:0000000000000013
#01612:0000130000000013
#01818:0000000013130000
#01815:00130013
#0181b:0000130000000013
#01812:0000000000000013
#01912:00130013
#0191b:0013
#01917:0000000000000013
#02215:0000000013130000
#02218:00130013
#02212:2400130000000013
#0221b:5300000000000013
#02210:41
#02315:0013000000130000
#0231b:0000001300000000
#02318:0013000000130000
#02312:0000000000000013
#02418:0000000013130000
#02415:00130013
#0241b:0000130000000013
#02412:0000000000000013
#02518:0013000000130000
#02512:0000001300000000
#02515:0013000000130000
#0251b:0000000000000013
#02615:0000000013130000
#02618:00130013
#02612:0000130000000013
#0261b:0000000000000013
#0271b:00130013
#02715:00000013
#02712:0013
#02718:0000000000000013
#01515:0013000000000000
#01517:0000001300000000
#01512:0000000000130000
#0151b:0000000000000013
#01718:0013000000000000
#01716:0000001300000000
#0171b:0000000000130000
#01712:0000000000000013
#02812:1300000000230000
#02818:0013000000000023
#02815:00000023
#0311b:0013000013000023
#03112:0023
#03115:0000000000230000
#03118:00000023
#0431b:0013000000000000
#04315:0000001300000000
#04318:0000002400130000
#04316:0000000000000013
#04314:0024000000000000
#04312:0000000000240000
#0431a:0000000000000024
#04712:0000001300000013
#04718:0000000000130000
#0471b:00000013
#04715:0013
#05117:0013000000000000
#05116:0000000000130000
#05112:0023002300000000
#0511b:0000000000230023
#0541b:13130000
#05412:24001313
#05414:00240000
#05416:0024
#05418:00000024
#05410:41
#06212:1313
#0621b:23232323
#06210:41
#06214:00000000000000000053000000000000
#06216:0000000000530000
#06716:00000000001300000000000000000000
#0671b:00130000
#0671a:0014
#06719:00000015
#0711b:1300000013130000
#07118:00130000
#07112:00260026
#07218:13001300000013000000000000640064
#07212:00262464
#0721a:00000024
#07214:00000000000000000064006400000000
#07216:0000000000640064
#08012:0000000000130023
#08015:00006313
#08018:0000000053000013
#0801b:0000000000130000
#08115:0000130000130000
#08118:00000013
#08112:0000000013000013
#0811b:0000000000000023
#08218:0013000000000000
#08215:0000130000230000
#0821b:0000001300000000
#0821a:0000000000000014
#08212:0000002300000000
#08219:00000000000000000000000000000054
#00415:0000000013130000
#00418:23
#00412:64240024
#00618:0000000013130000
#00615:23
#0061a:00240024
#00317:13
#00312:13005324
#00316:0000130000640064
#0031a:00000053000000002400000064000000
#00318:00530000000000000064006400000000
#00319:0053000000000000
#0031b:00530000
#00315:00000000005300000000000000000000
#00314:00000000000053000000000000640064
#00313:00000000000000530000000000000000
#01012:0000000000000013
#01016:23
#0101b:2300000000000063
#01017:0000000000230000
#01019:00000063
#02117:00000013
#02112:2400000000232300
#0211a:00000000000024000000000000000053
#02118:00000000000000000000000000530000
#02119:0000000000000053
#02918:0013000000130000
#02912:2300001300002300
#02915:0000230023000013
#0291b:23002323
#0351b:1313
#03518:0013000000230023
#03515:00130023
#03512:0000001300000000
#04612:14000014
#04613:00140000
#04614:0000000014000014
#04618:0000000024000024
#0461a:24000024
#04619:00240000
#07418:13001313
#07412:00000013
#0741b:0000000000130000
#07415:0000000000000013
#0741a:00240000
#07612:0000240000130000
#0761b:00000013
#07618:0000000000000013
#07615:13001313
#07715:1300000000000013
#07712:00000013
#07718:0013
#0771b:00000013
#0771a:00240000
#07318:0000000013130000
#07315:23
#0731a:64240024
#07310:41
#07515:0000000013130000
#07518:23
#07512:00240024
#08314:14
#08318:54
#0791b:0000000000000013
#07917:23
#07912:2300000000000063
#07916:0000000000230000
#07914:00000063
#00915:23000023
#00912:0000002400230000
#0091a:0000002400000000
#00918:0023000000230023
#05912:00240000
#0591a:00240000
#05914:0024
#05918:0024
#05916:00000024
#07014:24
#07018:24
#04915:0023000000000000
#04917:0000002300000000
#04912:0000000000230000
#0491b:0000000000000023
#05516:23
#0551b:23
#07818:23000023
#0781a:0000002400000000
#07812:0000002400000000
#07815:0023000000230023
#0781b:0000000000230000
#08612:52
#01056:63
#01052:0000000000000053
#0105b:0000000000000053
#00458:53
#00655:53
#00858:53
#01255:63
#0125b:0000000000000063
#01352:0000005300000000
#01358:0000000000530000
#02152:14
#0215a:0000001400000000
#03052:0000000000000053
#03056:00630000
#03252:63
#0335b:6300000000000063
#03358:0063
#03356:0000000000000053
#03652:63
#03958:0000001600000000
#03956:0000000000000053
#03952:0000001600000000
#03959:0000000000000045
#04052:0000130000000014
#0405b:00130000
#0415a:0014000000000000
#04154:0000001400000000
#04158:0000000000140000
#0415b:0000000000000053
#04156:0000000000000014
#04256:0000000000000014
#04354:0014000000000000
#04358:0000001400000000
#04352:0000000000140000
#04356:0000000000000063
#0435a:0000000000000014
#04557:0053000000000000
#04556:0000006300000000
#04552:0053000000000000
#0565b:6300000000000053
#05658:00000023000000000000000000000000
#05757:00000000002300000000000000000000
#0575b:00000043
#05752:00000033
#05855:00000023000000000000000000005300
#05852:53
#05952:00140000
#0595a:00140000
#05954:0014
#05958:0014
#05956:00000014
#0615b:23
#0645b:4300000000000063
#06452:0000000000000033
#06557:00000000002300000000000000000000
#06552:00333435
#06652:3600000000000053
#06656:00530000
#06658:46
#0665b:0000000000000043
#0685c:6200000000000062
#06852:0000000000000052
#06857:12
#07054:14
#07058:14
#00058:00460046
#00158:00460046
#00252:00360036
#01452:14
#0145a:14
#01455:00530000
#0145b:0000000000000053
#01658:00630000
#01652:0000000000000063
#0185b:0000000000000053
#01855:00530000
#01952:00630000
#0195b:0053
#02252:0000000000000063
#02258:00630000
#02355:0063000000000000
#0235b:0000005300000000
#02358:0000000000530000
#0245b:0000000000000053
#02455:00530000
#02558:0053000000000000
#02552:0000006300000000
#02555:0000000000630000
#02652:0000000000000063
#02658:00630000
#0275b:00530000
#01555:0053000000000000
#01557:0000006300000000
#01552:0000000000630000
#01758:0063000000000000
#01756:0000005300000000
#0175b:0000000000530000
#02858:0053000000000000
#04658:0000000000000054
#05157:0053000000000000
#05156:0000000000630000
#05152:0013005300000013
#0515b:0000001300130063
#0525a:0000000000000014
#05352:0014000000000000
#0535a:0000001400000000
#06252:63
#06256:0000000000630000
#06756:00000000002300000000000000000000
#0675b:00430000
#0675a:0044
#06759:00000045
#07152:00360036
#07252:00360000
#08058:0000000000000053
#08152:0000000000000053
#0825b:0000006300000000
#0445b:0000000000000053
#0485b:0000000000000053
#0485a:00140000
#04852:0000140000000013
#04858:53
#04855:53
#04955:0053000000000000
#04957:0000006300000000
#04952:0000001300530000
#0495b:0000000000130063
#04958:0013000000000000
#04956:0000000000000013
#0505b:0000000000000063
#05055:0000000000000013
#03758:53
#0375b:0000005300000000
#03755:0000005300000000
#05556:53
#0555b:53
#05552:0013
#05557:0013
#06058:0053
#07755:63
#07355:63
#07558:63
#08354:54
#0795b:0000000000000063
#07957:53
#07952:0000000000000063
#004380:13
#0053b0:0000000000230000
#006350:13
#007320:0000000000230000
#008380:13
#0083b0:0023
#010360:13
#010320:0000000000000033
#011350:0023
#012350:13
#012320:0023
#0123b0:0000000000000013
#013380:0023000000000000
#013320:0000001300000000
#013350:0000000000230000
#013381:0000000000130000
#0143a1:24
#014351:00130000
#014321:0023
#0143b1:0000000000000013
#015381:0023000000000000
#015350:0013000000000000
#015320:0000002300000000
#015371:0000001300000000
#0153b1:0000000000230000
#015320:0000000000130000
#015360:0000000000000023
#016380:00130000
#0163b0:0023
#016320:0000000000000013
#017350:0023000000000000
#017381:0013000000000000
#0173b1:0000002300000000
#017360:0000001300000000
#017320:0000000000230000
#0173b1:0000000000130000
#017371:0000000000000023
#018351:00130000
#018321:0023
#0183b1:0000000000000013
#019371:00230000
#019320:00130000
#019360:0023
#0193b1:0013
#019371:00000023
#022381:00130000
#0223b1:0023
#022321:0000000000000013
#023351:0033000000000000
#023321:0000002300000000
#0233b0:0000001300000023
#023380:0000000000330000
#024350:00130000
#024320:0023
#0243b0:0000000000000013
#025380:0033000000000000
#0253b0:0000002300000000
#025321:0000001300000023
#025351:0000000000330000
#026381:00130000
#0263b1:0023
#026321:0000000000000013
#027361:00230000
#0273b0:00130000
#027370:0023
#028380:0013000000000000
#0283b0:0023
#030360:00130000
#030320:0023
#030320:0000000000000013
#031360:0023000000000000
#032320:13
#032360:00000023
#0333b0:1300000000000033
#033380:0033
#034370:00000023
#033361:0000000000000013
#034321:00000023
#036321:13
#036351:0023
#037381:1300000000230000
#0373b1:0000003300000000
#037350:0000001300000000
#037320:0000000000230000
#039360:0000000000000013
#040320:00230000
#0413b0:0000000000000013
#042370:00230000
#043360:0000000000000013
#044320:00230000
#0443b0:0000000000000013
#045370:0033000000000000
#0453b0:0000002300000000
#045321:0013000000230000
#045361:0000003300000000
#046381:0000000000000014
#0473a1:0000002400000000
#048351:13
#048321:00240000
#048380:13
#0483a0:00240000
#0483b0:0000000000000013
#049380:0023000000000000
#049351:0013000000000000
#049321:0000002300000000
#049370:0000001300000000
#0493b0:0000000000230000
#049321:0000000000130000
#049361:0000000000000023
#0493b0:0000000000000013
#050370:00230000
#0503b0:0000000000000013
#051370:0033000000000000
#0513b0:0000002300000000
#051321:0000001300000023
#051361:0000000000330000
#0513b0:0000000000000013
#052370:00230000
#055360:13
#055320:0000003323000000
#0553b1:13
#055371:0000003323000000
#0563b1:1300002300000000
#056381:00000053000000000000000000000000
#0563b1:0000000000000013
#057371:00000000005300000000000000000000
#0573b1:00000023
#058321:1300002300000000
#058351:00000053000000000000000000000000
#058351:0000000000000013
#059321:00240000
#060381:0013
#0613b1:53
#061381:0023
#062321:13
#062361:0000002300000000
#062361:0000000000130000
#063321:0023
#0643b1:0000000000000013
#065371:00000000005300000000000000000000
#0653b1:00000023
#066361:00130000
#066321:0023
#066321:0000000000000013
#067361:00000000005300000000000000000000
#067321:00000023
#0683c1:12
#068381:0000002200000000
#068321:0000000000000012
#070341:24
#0683c0:0000000000000012
#070380:24
#073350:13
#074320:0000000000230000
#075380:13
#0763b0:0000000000230000
#077350:13
#077320:0023
#079370:13
#0793b0:0000000000000033
#080380:0023
#080380:0000000000000013
#0813b0:0023
#081320:0000000000000013
#082350:0023000000000000
#0823b0:0000001300000000
#082380:0000000000230000
#083340:14
#086320:22
#003970:13
#0039b0:00230000
#003961:00130000
#003921:0023
#0039a0:00001424
#003960:0000000000540000
#003921:00000014
#003961:0000000000000054
#004921:24
#010971:0000000000130000
#0109b1:0000000000000053
#011981:000000000000000000000000000000000000000000000000000000000000000000000000000000000000000000000000000000000000000000000000000000000000000000000000000000000000000000000000000000000000000000000000000000000000000000000000000000000000000000000000000000000000000000000000000000000000000000000000000000000000000000000000000000000000000000000000000000000000000000000000000000000000000000000000000000000000000000000000000000000000000000000000000000000000000000000000000000000000000000000000000000000000000000000000000000000000000000000000000000000000000000000000000000000000000000000000000000000000000000000000000000000000000000000000000000000000000000000000000000000000000000000000000000000000000000000000000000000000000000000000000000000000000000000000000000000000000000000000000000000000000000000000000000000000000000000000000000000000000000000000000000000000000000000000000000000000000000000000000000000000000000000000000000000000000000000000000000000000000000005353230000000000000000000000000000000000000000000000000000000000000000000000000000000000000000000000000000000000000000000000000000000000000000000000000000000000000000000000000000000000000000000000000000000000000000000000000000000000000000000000000000000000000000000000000000000000000000000000000000000000000000000000000000000000000000000000000000000000000000000000000000000000000000000000000000000000000000000000000000000000000000000000000000000000000000000000000000000000000000000000000000000000000000000000000000000000000000000000000000000000000000000000000000000000000000000000000000000000000000000000000000000000000000000000000000000000000000000000000000000000000000000000000000000000000000000000000000000000000000000000000000000000000000000000000000000000000000000000000000000000000000000000000000000000000000000000000000000000000000000000000000000000000000000000000000000000000000000000000000000000000000000000000000000000000000000000000000000000000000000000
#021971:00000013
#0229b1:23
#062921:0013
#062961:0000000000230000
#072921:00001424
#072961:0000000000540000
#0729a0:00000014
#072960:0000000000000054
#0739a0:24
#079960:0000000000130000
#079920:0000000000000053
#080950:000000000000000000000000000000000000000000000000000000000000000000000000000000000000000000000000000000000000000000000000000000000000000000000000000000000000000000000000000000000000000000000000000000000000000000000000000000000000000000000000000000000000000000000000000000000000000000000000000000000000000000000000000000000000000000000000000000000000000000000000000000000000000000000000000000000000000000000000000000000000000000000000000000000000000000000000000000000000000000000000000000000000000000000000000000000000000000000000000000000000000000000000000000000000000000000000000000000000000000000000000000000000000000000000000000000000000000000000000000000000000000000000000000000000000000000000000000000000000000000000000000000000000000000000000000000000000000000000000000000000000000000000000000000000000000000000000000000000000000000000000000000000000000000000000000000000000000000000000000000000000000000000000000000000000000000000000000000000000000005353230000000000000000000000000000000000000000000000000000000000000000000000000000000000000000000000000000000000000000000000000000000000000000000000000000000000000000000000000000000000000000000000000000000000000000000000000000000000000000000000000000000000000000000000000000000000000000000000000000000000000000000000000000000000000000000000000000000000000000000000000000000000000000000000000000000000000000000000000000000000000000000000000000000000000000000000000000000000000000000000000000000000000000000000000000000000000000000000000000000000000000000000000000000000000000000000000000000000000000000000000000000000000000000000000000000000000000000000000000000000000000000000000000000000000000000000000000000000000000000000000000000000000000000000000000000000000000000000000000000000000000000000000000000000000000000000000000000000000000000000000000000000000000000000000000000000000000000000000000000000000000000000000000000000000000000000000000000000000000000000
#0829a0:0000000000000014
#083980:24
