This file was generated by Ched 2.7.0.0.
#TITLE ""
#ARTIST ""
#DESIGNER ""
#DIFFICULTY 0
#PLAYLEVEL
#SONGID ""
#WAVE ""
#WAVEOFFSET 0
#JACKET ""
#REQUEST "ticks_per_beat 480"
#00002: 4
#BPM01: 160
#BPM02: 130
#00008: 01
#08208: 0002
#TIL00: ""
#VOLUME: ""
#HISPEED 00
#MEASUREHS 00
#00012:1300000013130000
#00018:00260026
#00115:1313001300130000
#00118:00260026
#0021b:1300000013130000
#00212:00260026
#0031b:13333333333333330033333333333333
#00317:0013
#00515:0000000000130000
#0051b:00000013
#00512:0000000000000013
#00718:0000000000130013
#00715:00000013
#00815:13
#0081b:00000013
#00812:0000000000000013
#0111b:0000000000130000
#01115:00000013
#01118:0000000000000013
#01215:0000000000130000
#01218:00000013
#01212:0000000000000013
#01318:0013000000000000
#01315:00130000
#0131b:0000001300000000
#01415:0000130000130000
#01418:00001313
#01412:2400000000000013
#0141a:24
#01410:41
#0151b:0000000000130000
#01515:0013000000000000
#0161b:0000130000000013
#01615:00001313
#01618:0000000000130000
#01612:00130000
#01712:0000000000130000
#01718:0013000000000000
#01815:0000130000000013
#01818:00001313
#01812:0000000000130000
#0181b:00130000
#01912:00130000
#01918:00000013
#01915:0000000000000013
#02018:0000000000130000
#02015:00000013
#02218:0000130000130000
#02215:0000000013000013
#0221b:00000013
#02212:24
#0221a:24
#02210:41
#02412:00130013
#0241b:00130000
#02418:0000000013000013
#02415:0000000000130000
#02618:0000130000130000
#02615:0013
#0261b:00000013
#02612:0000130000000013
#02715:0000130000000013
#0271b:00000013
#02818:0013000000000000
#03015:0000130000000013
#0301b:00130013
#03012:0000000000130000
#03018:0013
#0301f:11
#03212:13
#0331b:13
#03312:00000013
#03318:0000000000000013
#03515:0000130000130000
#03518:0013000000001300
#0351b:13
#03512:0000001300000013
#0361b:13
#03612:0000000000130000
#03615:0000000000000013
#0371b:0000000000130000
#03715:00000013
#03718:0000000000000013
#03812:13
#0381b:0013000000000000
#03915:2300230000000013
#03918:0023002600000000
#0391f:0000000000000021
#0401b:0013
#04015:0000000000130000
#04018:00000013
#04014:0000000000000024
#04010:00000041
#0421b:0000001300000000
#04215:0013
#04218:0000000000130024
#04212:00000013
#04415:0000001300000000
#0441b:0013
#04418:00000013
#04412:0000000000130013
#04515:0013000000130000
#04518:00000013
#04512:0000000000000013
#04815:1300000000130000
#0481b:0013
#04818:00000013
#04812:0000230000000024
#05215:0000001300000000
#0521b:0013
#05212:0000000000130000
#05218:00000013
#05214:0000000000000024
#05318:0024000000130000
#05315:00000013
#0531b:0000000000000013
#05314:0000002400000000
#05618:1300000000130000
#05612:0013
#05615:00000013
#0561b:0000000000000023
#05718:00000000001300000000000000000000
#05812:1300000000130000
#0581b:0013
#05818:00000013
#05815:0000000000000013
#06012:1313
#06018:0013000000000000
#06015:00130000
#0601b:0000001300000000
#06115:13
#0621b:13000000000000000033330000000000
#06218:0000003313000000
#06210:41
#06315:0000000000130000
#06318:00000013
#0631b:13
#06312:0000000000000013
#06412:0000001300000013
#06418:0013
#06415:0000000000130000
#0641b:13000013
#06515:00000000001300000000000000000000
#0661b:0000130000000013
#06612:0013
#06618:0000000000130000
#06615:00130013
#06718:00000000001300000000000000000000
#0681b:0000001300000013
#06815:0013
#06818:0000000000130000
#06812:13000013
#0711b:1300000013130000
#07112:00260026
#07218:1313001300130000
#07212:00260026
#08015:00000013
#08018:0000000000000013
#0801b:0000000000130000
#08115:0000000000130000
#08118:00000013
#08112:0000000000000013
#08218:00001300000000000000000000003333
#08215:00130000
#0821b:0000001300000000
#01012:00000013
#01015:23
#02318:0000000000130000
#02312:0013000000000000
#02515:0000000000130000
#0251b:0013000000000000
#0501b:0000001300000000
#05012:0013
#05018:0000000000130000
#05015:00000013
#0501a:0000000000000024
#07418:0000000000130000
#07412:00000013
#0741b:0000000000000013
#07615:0000000000130013
#07618:00000013
#07718:13
#07712:00000013
#0771b:0000000000000013
#08318:14
#00415:23
#00918:2300000000230023
#00912:0000002300000000
#00915:0023000000002300
#0091b:0000002300000000
#04314:0024000000000000
#0431a:0000002400000000
#04312:0000000000240000
#04318:0000000000000024
#00618:23
#02118:23000023
#02112:23
#02115:0000002300230000
#0211b:0000002300000000
#0461b:23
#04618:0000230000000024
#04615:0023
#04612:00000023
#04918:0024000000000000
#04914:0000002400000000
#0491a:0000000000240000
#04912:0000000000000024
#05412:23
#05415:00230000
#05418:0023
#0541b:00000023
#05410:41
#05515:23
#05912:00240000
#05916:0024
#0591a:00000024
#07018:24
#07918:23
#07915:0000000000000023
#02912:2323
#02918:0023000000230000
#02915:00230023
#0291b:0000002300000000
#07318:23
#07310:41
#07815:2300000000230023
#0781b:0000002300000000
#07818:0023000000002300
#07812:0000002300000000
#07515:23
#03112:0023
#03118:0000000000230000
#03115:00000023
#0311b:0000000000000023
#0511a:0000000000000024
#05112:0000000000240000
#05118:0000002400000000
#05114:0024000000000000
#04118:0024000000000000
#04112:0000002400000000
#0411a:0000000000240000
#04114:0000000000000024
#0861b:53
#01055:63
#01052:00000023
#0035b:63
#00357:0053
#00455:63
#00658:63
#00855:63
#01158:0000000000000053
#0135b:0000006300000000
#01452:0000000000000063
#0155b:0000000000530000
#01555:0063000000000000
#0165b:0000000000000053
#01752:0000000000630000
#01758:0053000000000000
#01855:0000000000000053
#01952:00530000
#01955:0000000000000053
#02652:0000000000000063
#02755:00630000
#02858:0063000000000000
#03055:0000000000000063
#03252:63
#0335b:63
#03358:0000000000000053
#0365b:53
#03652:0000000000630000
#03655:0000000000000063
#0385b:0063000000000000
#03958:0000001600000000
#03955:0000000000000053
#04258:0000000000000014
#04354:0014000000000000
#0435a:0000001400000000
#04352:0000000000140000
#04358:0000000000000014
#04452:0000000000000063
#04555:0063000000000000
#04855:53
#04852:0000130000000014
#04958:0014000000000000
#04954:0000001400000000
#0495a:0000000000140000
#04952:0000000000000014
#05555:53
#05552:0013
#05658:63
#0565b:0000000000000053
#05758:00000000002300000000000000000000
#05852:63
#05855:0000000000000053
#05952:00140000
#05956:0014
#0595a:00000014
#06155:23
#06052:0053
#0625b:53
#06258:0053
#06452:0000000000000053
#0645b:63
#06555:00000000002300000000000000000000
#0665b:0000000000000063
#06758:00000000002300000000000000000000
#06852:53
#0685b:0000000000000063
#07058:14
#08058:0000000000000053
#0825b:0000006300000000
#07958:53
#07955:0000000000000063
#02255:0000000000000053
#02358:0000000000630000
#02352:0053000000000000
#02458:0000000000000063
#02555:0000000000530000
#0255b:0063000000000000
#02955:00000053
#04658:0000000000000054
#05254:0000000000000014
#05358:0014000000000000
#05354:0000001400000000
#0635b:23
#07758:53
#07358:53
#07555:53
#08358:54
#04052:00130000
#04054:0000000000000014
#0515a:0000000000000014
#05152:0000000000140000
#05158:0000001400000000
#05154:0014000000000000
#0505a:0000000000000014
#04158:0014000000000000
#04152:0000001400000000
#0415a:0000000000140000
#04154:0000000000000014
#0033b0:13333333333333330033333333333333
#003370:0033
#0043b0:23
#004351:13
#005321:23
#006381:13
#0073b1:23
#008351:13
#008321:0023
#010351:13
#010321:00000053
#011351:0023
#011381:0000000000000013
#0123b1:0023
#0133b1:0000001300000000
#013381:00000023
#014321:0000000000000013
#015351:0033000000000000
#015321:0000002300000000
#0153b1:0000000000130000
#015381:0000000000000023
#0163b1:0000000000000013
#017381:0033000000000000
#0173b1:0000002300000000
#017321:0000000000130000
#017351:0000000000000023
#018351:0000000000000013
#019321:00330000
#019351:0023
#019351:0000000000000013
#020321:00230000
#022351:0000000000000013
#023321:0033000000000000
#023351:0000002300000000
#023381:0000000000130000
#0233b1:0000000000000023
#024381:0000000000000013
#0253b1:0033000000000000
#025381:0000002300000000
#025351:0000000000130000
#025321:0000000000000023
#026321:0000000000000013
#027351:00330000
#027321:0023
#028381:0013000000000000
#0283b1:0023
#029351:00000013
#030321:23
#030351:0000000000000013
#031321:0023000000000000
#032321:13
#032351:00000023
#0333b1:13
#033381:0023
#033381:0000000000000013
#0343b1:00000023
#0363b1:13
#036381:0023
#036321:0000000000130000
#036351:0000000000000033
#037321:0000002300000000
#0383b1:0013000000000000
#038381:00000026
#039351:0000000000000013
#040321:00230000
#044321:0000000000000013
#045351:0033000000000000
#045321:0000002300000000
#046381:0000000000000014
#0473a1:00000024
#048351:13
#048321:00230000
#055351:13
#055321:0000003323000000
#056381:13
#0563b1:0000002300000000
#0563b1:0000000000000013
#057381:00000000005300000000000000000000
#0573b1:00000023
#058321:13
#058351:0000002300000000
#058351:0000000000000013
#059321:00240000
#060321:0013
#061351:53
#061321:0023
#0613b1:0000000000130000
#061381:00000000000000000000000000330000
#0623b1:33000000000000000033330000000000
#062381:0000003333000000
#0633b1:53
#063381:0023
#0643b1:13
#064381:00230000
#064321:0000000000000013
#065351:00000000005300000000000000000000
#065321:00000023
#0663b1:0000000000000013
#067381:00000000005300000000000000000000
#0673b1:00000023
#068321:13
#068351:00230000
#0683b1:0000000000000013
#070381:24
#073381:13
#0743b1:23
#075351:13
#076321:23
#077381:13
#0773b1:0023
#079381:13
#0793b1:00000023
#079351:0000000000000013
#080321:0023
#080381:0000000000000013
#0813b1:0023
#0823b1:0000001300000000
#082381:00000000000000000000330000003333
#083381:34
#0863b1:23
