This file was generated by Ched 2.7.0.0.
#TITLE ""
#ARTIST ""
#DESIGNER ""
#DIFFICULTY 0
#PLAYLEVEL
#SONGID ""
#WAVE ""
#WAVEOFFSET 0
#JACKET ""
#REQUEST "ticks_per_beat 480"
#00002: 4
#BPM01: 160
#BPM02: 130
#00008: 01
#08208: 0002
#TIL00: ""
#VOLUME: ""
#HISPEED 00
#MEASUREHS 00
#00015:1300000013130000
#00012:00140014
#00016:0000000000000012
#00018:00000000260000000000000026000012
#00115:1313001300130000
#00112:00140014
#00116:0000000000000012
#00118:00000000260000000000000026000012
#00215:13
#00218:0000000013130012
#0021a:00140014
#00216:00000000000000000000000000000012
#00212:00260026
#00817:13
#00819:0000000000000013
#00812:1300260013130000
#00814:0000000000000013
#0081b:00000013
#00816:00000013
#01117:0000000000130000
#01112:0000130000130000
#01115:0013000013000000
#01116:0000000000000013
#01114:00000013
#01119:00000013
#0111b:0000000000000013
#0121b:1300000000130013
#01215:00000016
#01214:00130000
#01212:2400000013000024
#01216:0000000000130000
#01315:0013160000000023
#01312:0000001300000000
#01319:0000000000232300
#01318:00000000000000000000000000000023
#0131a:0000002400000000
#01417:0000000013000013
#01419:0000000000000000000000000000000000000000130000000000000000530000
#0141b:23000000130000000000000013000053
#01416:00000000130000000000000013000053
#01414:0000000000000000000000000000000000000000130000000000000000530000
#01412:2400000000000013
#01410:41
#01418:00000000000000000000000000000000000000000000000000000000000000000000000000000000000000000000000000000000000000000053000000000000
#0141a:00000000000000000000000000000000000000000000000000000000000000000000000000000000000000000000000000000000000000000000005300000000
#01413:00000000000000000000000000000000000000000000000000000000000000000000000000000000000000000000000000000000000000000053000000000000
#01415:00000000000000000000000000000000000000000000000000000000000000000000000000000000000000000000000000000000000000000000005300000000
#02012:2400001600001600
#0201b:1300001300130000
#02018:00130013
#02014:0000240000240000
#03212:12
#03218:0000001200120000
#0321a:24000014
#03912:2324252600000014
#03918:0000002600000000
#0391a:0024000000000024
#0391b:23
#03919:00250000
#0391f:0000000000000021
#0401a:0000000014000024
#04016:00140000140000000000000000002400
#04012:00001413
#04018:0000000000130000
#04015:00000000000000000000001300000000
#0401b:00000013
#04010:00000041
#04216:0000001300000024
#0421a:0014
#04212:0000140014001324
#04215:0000000000130000
#04218:00000000000000000000001300000000
#0421b:00000013
#04416:0000001300000000
#04412:0000130013000013
#04417:0013
#04418:00000014
#0441b:0000001300130000
#0441a:0000000000000014
#0631a:0000140000142400
#06318:0000000000000013
#06315:00000000000000000000000000000013
#06312:1414280014002400
#06316:2800001428000000
#06412:1300001400140023
#06418:0000000000000016
#0641b:00130000
#06417:0000001300000000
#06416:00001414
#0641a:24
#06616:00130000
#06619:00130000
#06612:2400000000000016
#0661a:24
#06618:0000000000000023
#06814:0000001200000000
#06816:2412
#06818:0000000000120000
#0681a:00000012
#0681b:13
#06812:0000000000000012
#0681c:0000000000000012
#01817:00001313
#0181b:0000130000130013
#01816:0000130000130013
#01812:00000013
#01912:00130013
#0191b:0013
#01919:0000000000000013
#01917:00130000000000000000000000000000
#02812:0013000000240000
#02815:13
#0281b:0013000013000000
#02817:00000000001300000000000000000000
#02814:00000024
#02816:0000000000000024
#0281a:0000000000240000
#03818:0013000000001300
#0381a:00130000
#03817:2200001300000000
#0381b:13
#03819:0013
#03816:0000000000130000
#03815:0000230000000013
#03813:0024
#03812:00000024
#05016:00131300
#0501b:0013
#05017:0000001300000000
#05012:0000001300000024
#05018:0000000000131300
#05015:00000000000000000000001300000000
#05013:00150000000000000000000000000000
#0501a:0000000000000024
#06516:00001414
#0651a:00000014
#06512:0000540000140000
#06514:0000000000000014
#00412:00251325
#00414:0000000000130000
#00417:00000014
#0041a:64
#00512:13251313
#0051b:0000000000130000
#00516:0000000000130000
#00517:00000013
#00514:0000000000000013
#00519:0000000000000013
#0061b:1313
#00619:0000250000132500
#00612:00000013
#00616:23
#0071b:1300000013000013
#00712:0000000000130000
#00717:0000000000130000
#00716:0000000000000013
#00714:00000013
#00719:00250013
#0101b:0000130000000023
#01018:2313
#01015:23
#01019:0000000000230000
#0101a:00000023
#01616:0000000013000013
#01614:0000000000000000000000000000000000000000130000000000000000530000
#01612:00000000130000000000000013000053
#01617:00000000130000000000000013000053
#01619:0000000000000000000000000000000000000000130000000000000000530000
#0161b:0000000000000013
#01615:00000000000000000000000000000000000000000000000000000000000000000000000000000000000000000000000000000000000000000053000000000000
#01613:00000000000000000000000000000000000000000000000000000000000000000000000000000000000000000000000000000000000000000000005300000000
#0161a:00000000000000000000000000000000000000000000000000000000000000000000000000000000000000000000000000000000000000000053000000000000
#01618:00000000000000000000000000000000000000000000000000000000000000000000000000000000000000000000000000000000000000000000005300000000
#02112:2c00142c00231300
#0211a:00140000
#02115:00000000000000000000000000130000
#02118:0000000000000013
#0211b:00000000000000000000230023000013
#02217:0000000013000013
#0221b:0000000000000000130000000000000000000000000000001300000000530000
#02216:00130013
#02214:0000000000130000
#02219:00000000000000000000000000000000000000000000000000000000000000000000000000000000130000000000000000000000000000000053000000000000
#02212:2400000000000013
#02210:41
#02416:0000000013000013
#02412:00130013
#02417:0000000000000000130000000000000000000000000000001300000000530000
#02419:00000000000000000000000000000000000000000000000000000000000000000000000000000000130000000000000000000000000000000053000000000000
#02414:0000000000130000
#0241b:0000000000000013
#02718:0000000000000013
#0271b:00130013
#02712:0013
#02716:00130000000000000000000000000000
#03115:00000013000013000000000000000000
#0311b:0000131300000000
#0311c:0012
#0311a:0000000000120000
#03114:0000000000240012
#03112:24132400
#03116:14000024
#03118:0013000000000024
#0331c:12
#03312:1400000000000014
#03314:0000001212000000
#03318:0000000000120000
#03316:00000000000000000000001200000000
#0331a:00000014
#03418:12
#03416:1200000000000022
#03414:0000121200002200
#0341a:0000000000000012
#03412:0000000000220000
#03516:14000000000022000000001200000000
#03518:0000220000120000
#0351a:0022000000001400
#03512:0000120000000014
#03514:0012000000000000
#0351c:22
#0361c:12
#03615:14
#03616:0000001212000000
#03612:0000000000120000
#0361a:0000000000000012
#03712:0000001200000000
#0371c:0000000000001212
#0411b:0000000000000013
#04112:0024000000240000
#04116:0024002400240024
#0411a:0000002400000000
#04316:0024002400240013
#0431a:0024000000240000
#04312:0000002400000024
#04517:1400000000130000
#04512:0013001300130000
#04519:0014000000000000
#04516:0000140000000013
#04518:0000001400000000
#04515:00001416
#0451b:0000000000000013
#0461b:0013001300000000
#04617:13131300
#04612:13141524
#04616:0000000000000024
#04812:1400260000002323
#04818:00260000
#0481b:00000023
#0481a:5400000000000024
#04912:0024002400140000
#04916:1414
#04917:00000014
#04915:00140000
#0491a:0014000000240000
#04919:0000000000000025
#05116:14140000
#05117:0014
#05115:00000014
#05112:0000002400000025
#0511a:0024000000240000
#05218:00150000000013001300001300002400
#05215:0000000000130000
#05212:0000001313001313
#0521b:00130013
#05312:0013001300130000
#05315:14000016
#05316:0000140000000013
#05317:0000000014130000
#0531b:0000000000000013
#05319:0024000000000000
#0531a:0000002400000000
#05416:0013280000000000
#0541b:00000013000000000000000000000000
#05412:1400000000132800
#05417:00000000000000000000001300000000
#05419:0000001300000000
#05414:00000000000000132800000000000000
#05415:0000000000000016
#0541a:24
#05410:41
#05716:0012120000130000
#05718:00000012000000000000000000130000
#0571a:00130000
#05712:0000001300000013
#05717:00000000000000130000000000000000
#05714:00001313
#05719:00000000000000000013000000000000
#0571b:00000000000000000000001300000000
#0611a:0000140000141400
#06116:0000001428000014
#06112:0014280014002800
#07116:1400000014140012
#07112:00140014
#07118:00000000260000000000000026000012
#08016:0000000000130000
#0801b:0000130000130000
#08015:00000016
#08017:0000000000000013
#08012:0000000000000013
#08018:0013000013000000
#08112:1300000000130013
#08115:00000016
#08119:00130000
#0811b:0013
#08117:0000000000130000
#08116:24
#0811a:0000000000000024
#08218:0013000000000016
#08215:0000162400000000
#0821b:0000001300000000
#08212:00000000000000000000240024000016
#0031b:13
#00315:0000130000000000000000000000000000000000006400000000006400000000
#00319:0000000013000000000000001300000000640000000000000000000000000064
#00312:00000013000000000000000064000000
#00317:0000000000000000130000000000000000000064000000000000000000640000
#00314:00000000001300000000006400640000
#00316:00000000000000130000640000006400
#0031a:0024
#00318:00000000000000000064000000000064
#00313:0000000000000000000000000000000000000000000000640064000000000000
#0151b:0013000000130000
#01516:0013000000130000
#01512:0000001300000000
#01517:0000001300000000
#0231a:0000000000000000000000000054000000000000000000000000000014000000
#02316:0013001400140000
#02314:00000000000000000053000000000000000000000000000000000000000000000000000000000000005400000000000000000000000000000000000000000000
#02312:0000000000530000000000000000000000000000005400000000000000000000
#02318:00000000000000000000000000000000000000000000000000540000000000000000000000000000000000000000000000000000000000000000000000000000
#0251a:0000001400000014
#02512:0013000000140000
#02518:00000000000000000000000000000000000000000000000000540000000000000000000000000000000000000000000000000000000000000000000000000000
#02516:0000000000530000000000000054000000000000005400000000000000000000
#02514:00000000000000000053000000000000000000000000000000000000000000000000000000000000005400000000000000000000000000000000000000000000
#02616:00001313
#02612:0000130000130013
#02617:0000130000130013
#0261b:00000013
#02918:0013000023000000
#02912:0000001300002300
#0291b:2300000000130000
#02916:0000240000000014
#03016:0000141414141414
#0301f:11
#0301a:24240024
#03012:2424
#05612:150000000000002c
#0561a:1400001400000000
#05618:00000015000000001400000000000000
#05616:0000000000140000
#05614:00000014
#0601a:1414
#06016:000000000000000000000000000000000000000000000000000000000000000000000000000000000000000000000000140000000000000000000000000000000000000000000000000000000000000000000000000000000000000000000000000000000000000000000000000000000000000000000000000000000000000000000000000000000000000000000000240000000000000000000000000000000000000000000000000000000000000000000000000000000000000000000000000000000000000000000000000000000000000000000000000000000000000000000000000000000000000000000000000000000000000000000000000000000000000000000000000000000000000000000000000000000000000000000000000000000000000000000000000000000000000000000000000000000000000000000000000000000000000000000000000000000000000000000000000000000000000000000000000000000000000000000000000000000000000000000074
#06012:24242400
#06716:00001414
#06712:00000014
#0671a:0000540000140000
#07716:13
#07714:0000000000000013
#0771b:1300000013130000
#07719:0000000000000013
#07712:00000013
#07717:00000013
#07718:00260000
#07512:13261326
#07515:0000000000130000
#0751b:00000013
#07517:23
#07612:1300260013130013
#07616:0000000000141414
#0761b:00000013
#07912:0000130000000023
#07915:2313
#07918:23
#07914:0000000000230000
#07913:00000023
#0731b:0013
#07319:0000250000132500
#07315:00000014
#07310:41
#07312:64
#0741b:1300000013130013
#07416:0000000000141414
#07412:00000013
#07419:00250000
#05816:14000014000000000000140000000000
#05812:00000014000000001400000000002c00
#0581a:14000014
#05915:0000001400000000
#05917:0000000000140000
#05916:00240024
#05914:0024
#05918:0024
#05912:00000024
#0591a:00240000
#06212:1414280014002800
#0621a:0000140000141400
#06216:2800001428000014
#06210:41
#0721a:14141464
#07212:2614261424000000
#07218:00002600000026000000006400640000
#07213:0000000000000000000000000000000000640000000000000000000000000064
#07214:00000000000000000064000000000064
#07215:0000000000000000000000000000000000000064000000000000000000640000
#07216:0000000000640064
#07217:0000000000000000000000000000000000000000006400000000006400000000
#07219:0000000000000000000000000000000000000000000000640064000000000000
#01712:0013000000130000
#01717:0013000000130000
#0171b:0000001300000000
#01716:0000001300000000
#00912:2300002400230023
#0091a:0024002400000000
#0091b:0000000000230023
#00915:00000023
#00917:23
#00916:0024000000000000
#00918:00000023
#07017:22
#0471a:24
#04712:240054
#04713:000000000000000000000000000000540054000000000000
#04714:000000000054005400640000
#04715:000000000000000000540054005400000000005400000000
#04716:005454640054
#04717:000000540054005400000000000000000000000000540000
#04718:005400640000000000000054
#04719:005400000000000000000000000000000000000000000054
#0551a:24000024000000000000000024000000
#05515:0000000000260000
#05512:24000024000000000000000024000000
#0781b:2300000000230023
#0781a:0000002400000000
#07812:0024002400230023
#07818:00000023
#07816:2324000000000000
#07815:00000023
#0861c:52
#06917:000000000000000000000000000000000000000000000000000000000000000000000000000000000000000000000000000000000000000000000000000000000000000000000000000000000000000000000000000000000000000000000000000000000000000000000000000000000000000000000000000000000000000000000000000000000000000000000000000000000000000000000000000000000000000000000000000000000000000000000000000000000000000000000000000000000000000000000000000000000000000000000000000000000000000000000000000000000000000000000000000000000000000000000000000000000000000000000000000000000000000000000000000000000000000000000000000000000000000000000000000000000000000000000000000000000000000000000000000000000000000000000000000000000000000000000000000000000000000000000000000000000000000000000000000000000000000000000072
#01055:63
#0105b:0000000000000053
#00656:53
#00659:00450045
#00652:00000023
#00857:53
#00852:00360000
#0125b:6300000000000063
#01252:0000000000000034
#01352:0000005300000000
#0135a:0000004400000000
#03252:62
#03256:00000012
#0325a:44000014
#03958:0000001600000000
#03952:0000001600000054
#0395a:0000000000000044
#06452:5300000000000013
#06458:0000000000000066
#0645a:44
#0685b:63
#06852:0000000000000052
#0685c:0000000000000062
#06856:34
#07057:12
#00058:00460046
#00158:00460046
#00252:00360036
#00952:0000001400000000
#0095a:0014001400000000
#00956:0014000000000000
#01452:14
#01456:00530000
#0185b:0000000000000053
#01856:0000530000000013
#01952:00630000
#0195b:0053
#01957:00230000000000000000000000000000
#02852:0053000000000000
#02857:00000000002300000000000000000000
#04452:0053
#0445a:0000000000000044
#04858:00460000
#04852:5400360000000033
#0485a:5400000000000054
#06656:00530000
#06652:3400000000000056
#0665a:44
#06658:0000000000000013
#01657:00630000
#02052:0000003600003600
#02256:00530000
#02252:3400000000000013
#02457:00630000
#02456:0000000000000033
#02152:4c00003c00000000
#03052:3434
#0305a:44440044
#0335c:52
#0335a:00000014
#03352:0000000000000014
#03458:62
#03556:0000005200000000
#0355a:00000014
#03552:0000000000000014
#0365c:52
#03652:0000000000620000
#0365a:0000000000000052
#03752:0000006200000000
#03857:32
#03855:00330000
#03853:0034
#03852:00000034
#04056:00240000140000000000000000001400
#0405a:0000000000000014
#04052:00340000
#04152:0014000000340000
#04156:0014001400140034
#0415a:0000004400000000
#0415b:0000000000000053
#04256:0000000000000014
#04252:0000000000000014
#0435a:0014000000440000
#04356:0014001400140063
#04352:0000003400000034
#04559:0044000000000000
#04558:0000004400000000
#04657:53535300
#0465b:0023002300000000
#04652:33343500
#04952:0034005400640035
#04956:2424
#04957:00000024
#04959:0000004500000055
#04955:00240000
#0495a:0054000000440000
#05156:24240000
#05157:0024
#05155:00000024
#05152:0034005400350055
#05159:0000004500000045
#0515a:0064000000640000
#05258:00250000000000000000000000004400
#05359:0044000000000000
#0535a:0000004400000000
#05456:00380000
#05452:00000038
#0545a:14
#05454:0048
#0555a:54000024000000001400000014000000
#05552:64000024000000001400000014000000
#05652:550000000000004c
#05658:00000025000000000000000000000000
#08152:5300000000000053
#08156:44
#0815a:0000000000000044
#0825b:0000006300000000
#08255:0000003400000000
#00452:00350035
#00457:00000024
#0045a:54
#00552:00350000
#00759:00450000
#05053:00250000000000000000000000000000
#0505a:0000000000000044
#05052:0000000000000054
#0655a:00000044
#0155b:0063000000630000
#01556:0063000000630000
#01552:0000006300000013
#01557:0000006300000013
#02352:0000001300000014
#0235a:0000000000140014
#0235b:0013000000000000
#02556:0000003300440034
#02557:0043000000000000
#0255a:0000000000000044
#02652:0000000000000063
#02657:0000630000000013
#0275b:00530000
#02752:0063
#02756:00230000000000000000000000000000
#03152:34
#0605a:0054
#06052:0054
#06752:00000034
#0675a:0000000000440000
#07158:00460046
#07756:63
#07758:00460000
#0755b:00000023
#07557:63
#07552:00360036
#07958:53
#07952:0000000000000063
#0785a:0000001400000000
#07852:0014001400000000
#07856:0014000000000000
#07652:00360000
#07355:00000024
#07359:00450045
#07352:64
#07459:00450000
#05856:64000024000000000000000000000000
#05852:00000024000000000000000000003c00
#0585a:64
#0595a:00140000
#05954:0014
#05956:00000014
#06156:14
#0615a:00140014
#06152:0014
#06252:1414
#0625a:00140014
#06352:1414
#0635a:00140000
#01752:0053000000530000
#01757:0053000000530000
#0175b:0000005300000013
#01756:0000005300000013
#0043a0:14
#004370:00000054
#0053a0:0024
#006360:13
#006320:00000053
#007360:0023
#008370:13
#0083b0:0023
#010350:13
#010320:0000000000000023
#0103b1:0000000000000013
#011381:0023
#0123b1:13
#012371:0023
#0123b1:0000000000000013
#013381:0023000000000000
#013321:0000001300000000
#013361:00000023
#014361:00130000
#014321:0023
#014361:00000000000000000000000000000013
#015361:0033000000000000
#015321:0000533300000000
#0153b1:0000000053330000
#015371:0000000000005323
#0143b0:00000000000000000000000000000013
#0153b0:0033000000000000
#015370:0000533300000000
#015360:0000000053330000
#015320:0000000000005323
#016370:00130000
#0163b0:0023
#016370:00000000000000000000000000000013
#017370:0033000000000000
#0173b0:0000533300000000
#017320:0000000053330000
#017360:0000000000005323
#016321:00000000000000000000000000000013
#017321:0033000000000000
#017361:0000533300000000
#017371:0000000053330000
#0173b1:0000000000005323
#018361:00130000
#018321:0023
#0183b1:0000000000000013
#019371:00530000000000000000000000000000
#0193b1:00230000
#019320:00130000
#019360:0023
#0193b1:0013
#019371:00000023
#022361:00130000
#022321:0023
#0223b1:0000000000000000000000000000000000000000000000000000000000130000
#0233b1:0023000000000000
#023321:0000000000130000000000002300000000000000000000000000000000000000
#0233a1:0000000000000000000000000014000000000000240000000000000000000000
#023321:0000000000000000000000000000000000000000001400000000000024000000
#024371:00130000
#0243b1:0023
#024371:0000000000000000000000000000000000000000000000000000000000130000
#025371:0023000000000000
#025361:0000000000130000000000002300000000000000000000000000000000000000
#025361:0000000000000000000000000014000000000000240000000000000000000000
#025361:0000000000000000000000000000000000000000001400000000000024000000
#026371:00130000
#0263b1:0023
#026321:0000000000000013
#027361:00530000000000000000000000000000
#027321:00230000
#0273b0:00130000
#027370:0023
#027321:0013
#027361:00000023
#028321:0013000023000000
#028371:00000000005300000000000000000000
#029321:13
#029351:0023000000000000
#0293b1:00130000
#029361:0000002400000000
#029351:0013
#029321:0000000000230000
#029361:00000014
#0293b1:0000000000000023
#032321:12
#032361:0052000000002200
#0333c1:12
#033381:0052000022000000
#034381:12
#0343c1:0052000000002200
#035361:0000001200000000
#035321:0000000000220000
#0363c1:12
#036381:0052000000220000
#036320:0000000000120000
#0373a0:0000000000220000
#0363a1:0000000000000012
#037321:0000003200000000
#038371:22
#039321:0000000000000014
#040361:00540000000000000000000000000000
#040321:00240000
#0413b1:0000000000000013
#042361:00230000
#043361:0000000000000013
#0443b1:00230000
#044321:0013
#044351:00000023
#046371:13333300
#0463b1:0053005300002300
#0483a1:14
#048321:00260000
#048320:14
#048380:00260000
#0483a0:0000000000000014
#049360:54
#0493a0:0034000000000000
#049350:00540000
#049390:0000002500000000
#049321:0000001400340025
#049361:0054
#049371:00000054
#049390:0000000000000015
#050330:00550000000000000000000000000000
#050390:00250000
#050320:0000000000000014
#051360:54
#051320:0024000000000000
#0513a1:0014000000000000
#051361:00540000
#051391:0000002500000000
#051320:0000001400250000
#051370:0054
#0513a1:0000000000140000
#051351:00000054
#051391:0000000000000025
#051320:0000000000000015
#052380:00550000000000000000000000000000
#052320:00250000
#0553a0:1400003424000000
#055320:00000054000000000000000000000000
#055321:1400003424000000
#0553a1:00000054000000000000000000000000
#056321:1500002500000000
#056381:00000055000000000000000000000000
#058361:1400002400000000
#058321:00000054000000000000000000000000
#0583a0:1400002400000000
#058360:00000054000000000000000000000000
#0603a0:00143400
#060360:000000000000000000000000000000000000000000000000000000000000000000000000000000000000000000000000000000000000000000000000000000000000000000000000000000000000000000000000000000000000000000000000000000000000000000000000000000000000000000000000000000000000000000000000000000000000000000000000000000000000000000000000000000000000000000000000000000000000000000000000000000000000000000000000000000000000000000000000000000000000000000000000000000000000000000000000000000000000000000000000540000000000000000000000000000000000000000000000000000000000000000000000000000000000000000000000000000000000000000000000000000000000000000000000000000000000000000000000000000000000000000000000000000000000000000000000000000000000000000000000000000000000000000000000000000000000000000000024
#060321:0014
#060361:000000000000000000000000000000000000000000000000000000000000000000000000000000000000000000000000000000000000000000000000000000000000000000000000000000000000000000000000000000000000000000000000000000000000000000000000000000000000000000000000000000000000000000000000000000000000000000000000000000000000000000000000000000000000000000000000000000000000000000000000000000000000000000000000000000000000000000000000000000000000000000000000000000000000000000000000000000000000000000000000005400000000000000000000000000000000000000000000000000000000000000000000000000000000000000000000000000000000000000000000000000000000000000000000000000000000000000000000000000000000000000000000000000000000000000000000000000000000000000000000000000000000000000000000000000000000000000000000
#061361:24
#064321:13
#064361:00230000
#0643b1:0000000013230000
#064321:0000000000001323
#064380:0000000000000016
#065320:00240000
#066360:00130000
#066320:0023
#0663b1:0000000013230000
#066350:0000000000132300
#066381:0000000000001323
#066320:0000000000000016
#0673a0:00240000
#0683b0:13
#068360:0000002300000000
#068320:0000000000000012
#069370:00000052
#070370:22
#0683c1:0000000000000012
#069371:000000000000000000000000000000000000000000000000000000000000000000000000000000000000000000000000000000000000000000000000000000000000000000000000000000000000000000000000000000000000000000000000000000000000000000000000000000000000000000000000000000000000000000000000000000000000000000000000000000000000000000000000000000000000000000000000000000000000000000000000000000000000000000000000000000000000000000000000000000000000000000000000000000000000000000000000000000000000000000000000000000000000000000000000000000000000000000000000000000000000000000000000000000000000000000000052000000000000000000000000000000000000000000000000000000000000000000000000000000000000000000000000000000000000000000000000000000000000000000000000000000000000000000000000000000000000000000000022
#073320:14
#073350:00000054
#074320:0024
#075370:13
#0753b0:00000053
#076370:0023
#077360:13
#077320:0023
#079380:13
#0793b0:0000000000000023
#079321:0000000000000013
#080351:0023
#081321:13
#081361:0023
#081321:0000000000000013
#082351:0023000000000000
#0823b1:0000001300000000
#082361:00000024
#083381:16
#0863c1:22
#0039a0:0014
#003920:00000054
#0049a0:24
#022970:0000000000000013
#0229b0:0000000000000000000000000000000000000000000000000000000000230000
#023960:0013000000000000
#023920:0000000000230000000000000000000000000000000000000000000000000000
#023960:0000001400000000
#0239a0:0000000000000000000000000024000000000000000000000000000000000000
#023960:0000000000140000
#023920:0000000000000000000000000000000000000000002400000000000000000000
#0249b0:0000000000000013
#024970:0000000000000000000000000000000000000000000000000000000000230000
#025920:0013000000000000
#025960:0000000000230000000000000000000000000000000000000000000000000000
#0259a0:0000001400000000
#025960:0000000000000000000000000024000000000000000000000000000000000000
#025920:0000000000140000
#025960:0000000000000000000000000000000000000000002400000000000000000000
#0479a0:14
#047960:005400540000
#047980:00540000
#047940:000000000054000000000000
#047920:000054
#0489a0:24
#048980:00160000
#0489c0:0022
#048921:00162200
#072921:0014
#0729a1:00000054
#073921:24
