This file was generated by Ched 2.7.0.0.
#TITLE ""
#ARTIST ""
#DESIGNER ""
#DIFFICULTY 0
#PLAYLEVEL
#SONGID ""
#WAVE ""
#WAVEOFFSET 0
#JACKET ""
#REQUEST "ticks_per_beat 480"
#00002: 4
#BPM01: 160
#BPM02: 130
#00008: 01
#08208: 0002
#TIL00: ""
#VOLUME: ""
#HISPEED 00
#MEASUREHS 00
#01412:14
#0141a:0014
#01410:41
#01514:1414
#01518:00140000
#0201a:14
#02012:0014
#0641a:14
#06412:14
#06418:0000000014000014
#06414:00000014
#06618:00140014
#06614:0000000014000014
#00518:00000014
#00714:00000014
#0161a:14
#01612:0014
#01718:1414
#01714:00140000
#01812:14
#0181a:0014
#01914:1414
#01918:00140000
#02218:1414
#02214:00140000
#02210:41
#02312:1414
#02318:00140000
#0241a:1414
#02414:00140000
#02512:1414
#02518:00140000
#0261a:1414
#02614:00140000
#02712:1414
#0271a:00140000
#03112:14
#03118:0014
#03114:00000014
#03014:14
#03018:0014
#0301f:11
#0341a:0014
#03418:14
#05918:00140000
#05914:0014
#0591a:00000014
#06014:14
#06018:00140000
#06012:0014
#06114:14
#0621a:14
#06218:0014
#06210:41
#01314:14
#01318:0014
#01012:14
#02112:0014
#0211a:24
#02918:0014
#02912:14
#03218:14
#03314:14
#03614:14
#03718:14
#03918:0000000000000014
#0391f:0000000000000021
#0461a:14
#04614:00140000
#04618:0014
#04612:00000014
#0471a:14
#04812:14
#04818:0000000000000024
#05412:14
#05418:00140000
#05414:0014
#0541a:00000014
#05410:41
#05514:14
#0681a:14
#06912:14
#07414:00000014
#07618:00000014
#0791a:14
#08112:14
#00018:2626
#0561a:24
#05618:0000003434343424
#00118:26
#00212:2626
#00312:26
#00418:24
#00914:24
#03814:24
#04014:0000000000000024
#04010:00000041
#04118:0024000000240000
#04114:0000002400000000
#04112:0000000000000024
#04218:0000000000000024
#04314:0024000000240000
#04318:0000002400000000
#0431a:0000000000000024
#05218:0000000000000024
#05314:0024000000000000
#05318:0000002400000000
#05814:24
#05812:0000003434343400
#07118:2626
#07218:26
#08218:0024
#08314:24
#00614:24
#04412:0000000000000024
#04518:0024000000000000
#04512:0000002400000000
#04914:0024000000000000
#0491a:0000002400000000
#04912:0000000000240000
#04918:0000000000000024
#05014:0000000000000024
#05118:0024000000000000
#05112:0000002400000000
#0511a:0000000000240000
#05114:0000000000000024
#07014:24
#07314:24
#07310:41
#07818:24
#07518:24
#00352:16
#00954:54
#0215a:14
#0345a:0024
#03458:54
#03952:14
#03958:0000000000000054
#03854:54
#0565a:54
#05658:0000000000000054
#05854:54
#06052:0054
#06154:24
#0625a:64
#06258:0054
#08354:54
#07258:16
#00458:54
#00654:54
#01052:54
#03354:54
#03258:54
#03654:64
#03758:64
#04152:0000000000000054
#0435a:0000000000000054
#0475a:54
#04958:0000000000000054
#04852:54
#05154:0000000000000064
#05554:54
#06458:0000000000000054
#06654:0000000000000064
#0685a:64
#06952:64
#07054:14
#0795a:64
#07354:64
#07858:64
#07558:64
#08152:54
#004380:14
#0053a0:24
#006340:14
#007320:24
#008380:14
#0083a0:0024
#009340:14
#010320:34
#011340:0024
#0123a0:14
#012380:0024
#028380:14
#0283a0:0024
#032380:14
#0323a0:00000024
#033340:14
#033320:00000024
#034380:14
#0343a0:0054
#035380:24
#036340:14
#036320:00000024
#037380:14
#0373a0:00000024
#038340:14
#039320:24
#039380:0000000000000014
#0403a0:0024
#041320:0000000000000014
#042340:0024
#0433a0:0000000000000014
#044380:0024
#0473a0:14
#047380:00000024
#048320:14
#048340:0024
#049380:0000000000000014
#0503a0:0024
#051340:0000000000000014
#052320:0024
#055340:14
#055320:0024
#0563a0:14
#056380:0000003434343434
#0573a0:0024
#058340:14
#058320:0000003434343424
#060320:0014
#061340:54
#061320:0024
#0623a0:14
#062380:0054
#0633a0:0024
#064380:0000000000000014
#0653a0:0024
#066340:0000000000000014
#067320:0024
#0683a0:14
#068380:0024
#069320:14
#070340:24
#073340:14
#074320:24
#075380:14
#0763a0:24
#077340:14
#077320:0024
#078380:14
#0793a0:34
#080380:0024
#081320:14
#082340:24
#083340:14
#086320:24
