This file was generated by Ched 2.7.0.0.
#TITLE ""
#ARTIST ""
#DESIGNER ""
#DIFFICULTY 0
#PLAYLEVEL
#SONGID ""
#WAVE ""
#WAVEOFFSET 0
#JACKET ""
#REQUEST "ticks_per_beat 480"
#00002: 4
#BPM01: 147
#00008: 01
#TIL00: ""
#VOLUME: ""
#HISPEED 00
#MEASUREHS 00
#0291a:0000000000140000
#0291f:11
#0371b:0013000000000000
#03712:00130000
#0371a:0000001300000000
#03713:0013
#03719:0000000000130000
#03714:00000013
#03718:0000000000000013
#0171b:0000001300000013
#01715:1300000000130000
#01718:00001313
#03614:00000000000014000000001400000000
#03618:00000000140000000000001400000000
#03612:2424
#0361a:2424
#0361f:21
#03610:0000000000000041
#07115:0000001300001300
#07118:0000130013000013
#02115:00230013
#02112:13
#0211b:00000000000000130000000000000000
#02118:00000000000000000000000000130000
#02110:41
#06712:0000001400000000
#06717:00000014
#0671a:0014
#01112:00130000
#01112:00130000
#01118:0000001300130000
#01115:00000000000000130000001300000000
#0111b:00000000000000000000000000130000
#01012:0000001300000000
#0101b:1313
#01015:0000000000130000
#01018:00000000000000000000000000130000
#01215:0000130000130000
#01212:0013000000000000
#01218:00000000000013000000000000130000
#0121b:0013
#01818:0000001300000000
#01812:1300000000130000
#01815:00000000000000001300000000130000
#01815:00000000000000000000000000130000
#0181b:00000013
#0181b:00000013
#02218:0000001300130000
#02215:00000000000000001300000000130000
#02315:00000013
#02318:00000000130000000000000000130000
#0231b:00000000000000130000000000000000
#02418:0000130000130000
#02415:00001300000013000000000000130000
#02412:0013
#02615:0013000000001300
#02618:00130000
#02612:0000001300000000
#03015:0000001400000000
#0301a:00140000
#03117:0000000000000014
#03112:0014000000001400
#03818:0000000000000013
#03812:00130000
#03815:13
#04012:0000001300000000
#04018:13000000000000000000001300001300
#04015:00000000000000000000130000130000
#0401b:0013
#04314:00140000
#04318:0014001500160000
#04312:00000016
#04313:0015
#04212:00000000000000000000001300000000
#0421b:13
#04115:0000130000000013
#04118:0000001300001300
#04112:0013
#05215:00130000
#05212:0000000000000013
#05218:23
#05318:00000013
#05312:00000000331333000000000000000000
#05315:0013000000000000
#05418:0000000013000013
#0541b:00000000000000000000001300000000
#05415:13
#05815:0013
#05812:00000000000000000000001300000000
#05818:13
#0681a:14
#06817:0000000000000014
#06815:14
#06812:0000000000000014
#0701b:13
#07012:0000000000000013
#05112:0000001300000000
#05115:0000000013000013
#05118:0000000000130000
#0511b:00000013
#03212:14
#0331a:0000000000140000
#03312:00000014
#03318:0000000000000014
#0731b:00000013
#07315:00131300
#07318:0000001300000000
#00118:00001313
#00115:0000001300000013
#00112:0000000000130000
#00218:00000000000000001300000000130000
#00215:0000001300001300
#0021b:0000000000130000
#00615:00001313
#00612:0000001300000000
#00618:1300000000130000
#0061b:00000000000000000000000000130000
#00912:0000001300000000
#00915:13000013
#0091b:13
#00918:00130000
#00910:41
#0151b:00130000
#0151b:00130000
#01515:0000001300130000
#01518:00000000000000130000000013000000
#01512:00000000000000000000000000130000
#0141b:0000001300000000
#01412:1313
#01418:0000000000130000
#01415:00000000000000000000000000130000
#0161b:0013000000000000
#01615:00130013
#01618:00000000000000130000000000001300
#0131b:0000001300000000
#01318:00000013
#01315:00130000
#03414:14
#03412:0014
#03915:0000001300130013
#03918:00001313
#04512:0013000000000000
#0451b:00130000
#04513:0000001300000000
#0451a:0013
#04514:0000000000130000
#04519:00000013
#04515:0000000000000013
#04418:00000000000014000000001400000000
#04414:00000000140000000000001400000000
#0441a:2424
#04412:2424
#04615:0000000000000013
#0461b:00130000
#04618:13
#0481b:0000001300000000
#04815:13000000000000000000001300001300
#04818:00000000000000000000130000130000
#04812:0013
#04810:41
#0501b:00000000000000000000001300000000
#05012:13
#04918:0000130000000013
#04915:0000001300001300
#0491b:0013
#04718:0000000000130013
#04715:00000013
#05515:0000000000130000
#05518:00000013
#0551b:0000000000000013
#05618:00130000
#0561b:0000000000000013
#05615:23
#05610:41
#05715:00000013
#0571b:00000000331333000000000000000000
#05718:0013000000000000
#0591b:0000001300000000
#05918:0000000013000013
#05915:0000000000130000
#05912:00000013
#06018:00160000
#0601a:0000000000000014
#06012:2614
#06112:00000014
#0611a:00000000341434000000000000000000
#06117:0014000000000000
#06215:0000000014000014
#06212:00000000000000000000001400000000
#06217:14
#06617:0014
#0661a:00000000000000000000001400000000
#06615:14
#0631a:0000000000140000
#06316:00000014
#06312:00000014000000000000000000001400
#06412:0000160000000014
#0641a:0014
#06418:26
#06410:41
#0651a:00000014
#06512:00000000341434000000000000000000
#06515:0014000000000000
#07212:13
#0721b:0000000000000013
#07418:1313
#0741b:0000130000000023
#07412:1313
#07415:0000130000000023
#02712:00130000
#0271b:00000013
#00315:00001313
#00318:0000001300000013
#0031b:0000000000130000
#00415:00000000000000001300000000130000
#00418:0000001300001300
#00412:0000000000130000
#0051b:13001313
#00512:0000001300000013
#00515:0000000000130000
#00818:00001313
#0081b:0000001300000000
#00815:1300000000130000
#00812:00000000000000000000000000130000
#00712:13001313
#0071b:0000001300000013
#00718:0000000000130000
#0201b:1300000000130000
#02015:0000001300000000
#02018:00000000000000001300000000130000
#02018:00000000000000000000000000130000
#02012:00000013
#02012:00000013
#01918:1300000000130000
#01912:0000001300000013
#01915:00001313
#02518:00000000000000000000003313000000
#02519:00000000003300000000330000000000
#0251a:00000000000033000033000000000000
#0251b:00000000000000330000000000000000
#02155:00130000
#02152:53
#0215b:00000000000000630000000000000000
#02158:00000000000000000000000000530000
#0225b:13
#02255:00000000000000000000000000630000
#02455:00000000000000000000000000630000
#0245b:13
#03654:00000000000000000000006400000000
#0365a:1400000064000014
#03652:1400000054000014
#03658:00000000000000000000005400000000
#03858:0000000000000053
#03852:00530000
#03855:6313
#04058:5300000000000053
#04252:00000000000000000000005300000000
#04255:0000000000000013
#0425b:63
#0525b:00000000000000000000001300000000
#05258:13
#05252:0000000000000053
#05458:0000000053000053
#0545b:00000000000000000000006300000000
#05455:63
#05855:0000000063000013
#05852:00000000000000000000005300000000
#05858:53
#0685a:64
#06857:0000000000000024
#06855:64
#06852:0000000000000024
#0705b:63
#07052:0000000000000053
#03252:54
#0735b:00000063
#04152:0013
#0115b:13000000000000000000000000630000
#0095b:13
#00955:13
#01258:13000000000000000000000000530000
#0135b:13
#01058:00000000000000000000000000530000
#0105b:63
#01455:00000000000000000000000000630000
#01452:53
#01552:13000000000000000000000000530000
#01655:13
#01658:00000000000000530000000000000000
#03055:0014000000000000
#0305a:0000000000000014
#03157:0000000000140000
#03454:64000014
#03452:0054
#02952:0000001400000000
#02352:13
#02358:00000000530000000000000000530000
#0235b:00000000000000630000000000000000
#04458:00000000000000000000005400000000
#04454:00000000000000000000006400000000
#0445a:1400000064000014
#04452:1400000054000014
#04655:0000000000000063
#0465b:00630000
#04658:5313
#04855:6300000000000063
#0505b:00000000000000000000006300000000
#05052:53
#05058:0000000000000013
#0495b:0013
#05355:0063000013000000
#05352:00000000002300000000000000000000
#0565b:0000000000000063
#05655:13
#05652:00000000000000000000001300000000
#0575b:00000000002300000000000000000000
#05758:0053000013000000
#06255:0000000064000064
#06252:00000000000000000000005400000000
#06257:54
#06657:0000000054000014
#0665a:00000000000000000000006400000000
#06655:64
#0605a:0000000000000064
#06052:1654
#06055:00000000000000000000001400000000
#0615a:00000000002400000000000000000000
#06157:0054000014000000
#06352:00000024000000000000000000000000
#06452:0000000000000054
#0645a:0064
#06458:16
#06457:00000000000000000000001400000000
#06552:00000000002400000000000000000000
#06555:0064000014000000
#06757:00000054
#0675a:0064
#07252:53
#0725b:0000000000000063
#07458:5353
#0745b:0000630000000013
#07452:5353
#07455:0000630000000013
#02552:13
#02558:00000053
#02752:00530000
#0275b:00000063
#02755:0013
#02858:13
#0055b:63
#00658:53
#00752:53
#00855:63
#01755:63
#01852:53
#0205b:63
#01958:53
#0013b0:13230000
#002380:13230000
#003320:13230000
#004350:13230000
#0053b0:13
#005380:00230000
#006380:13
#0063b0:00230000
#007320:13
#007350:00230000
#008350:13
#008320:00230000
#009380:00000000000000130000230000000000
#0093b0:00000000000000000000000000130000
#0103b0:33
#010380:00230000
#010380:00000000000000000000001300330000
#0113b0:23
#0113b0:00000000000000000000000000130000
#012380:23
#012380:00000000000000000000001300330000
#0133b0:23
#013350:00000000000000130000230000000000
#013320:00000000000000000000000000130000
#014320:33
#014350:00230000
#014350:00000000000000000000001300330000
#015320:23
#015320:00000000000000000000000000130000
#016350:23
#016380:00000000001300330000000000000000
#0163b0:0000000000230000
#017350:13
#017320:00230000
#018320:13
#018350:00230000
#019380:13
#0193b0:00230000
#0203b0:13
#020380:00230000
#021320:13
#021350:00230000
#0213b0:00000000000000130000000000000000
#021380:0000000000230000
#021380:00000000000000000000000000130000
#0223b0:23
#022350:00000000000000000000001300330000
#023320:23
#023380:0000130000230000
#0233b0:00000000000000330000000000000000
#023380:00000000000000000000000000130000
#0243b0:23
#024350:00000000000000000000001300330000
#025320:23
#025380:00000000130000000000003333000000
#025390:00000000003300000000330000000000
#0253a0:00000000000033000033000000000000
#0253b0:00000000000000333300000000000000
#0263b0:23
#0263b0:00000000000000130000230000000000
#026380:00000000000000000000000000130000
#027380:23
#027320:00130000
#027350:0023
#0273b0:00000013
#028380:23
#028320:00000014
#029320:3400002400000000
#029350:00000034000000000000000000000000
#029350:00000014
#029320:00000000000000000000000000000034
#030350:0024000000000000
#0303a0:0000000014000024
#030370:00000000000000000000003400000000
#031370:0000140000240000
#0313a0:00000000000000340000000000000000
#032320:14
#033360:0024
#034340:14000024
#034320:0000003434000000
#036320:0000000014000024
#036340:00000000000000000000003400000000
#0363a1:0000000014000024
#036381:00000000000000000000003400000000
#038351:1323
#038321:00330000
#038381:00000000000000000000001300003300
#0393b1:00230000
#040381:13
#0403b1:00230000
#040381:0000000000000013
#0413b1:0023000000000000
#0423b1:13
#042381:00230000
#042321:00000000000000001300003300000000
#042351:0000000000000023
#0443a1:0000000014000024
#044381:00000000000000000000003400000000
#044320:0000000014000024
#044340:00000000000000000000003400000000
#046380:1323
#0463b0:00330000
#046350:00000000000000000000001300003300
#047320:0023
#048350:13
#048320:00230000
#048350:0000000000000013
#049320:0023000000000000
#050320:13
#050350:00230000
#0503b0:00000000000000001300003300000000
#050380:0000000000000023
#0523b0:00000000000000001300002300000000
#052320:0000000000000013
#053350:0033000023000000
#053320:00000000335333000000000000000000
#054350:13
#054320:00230000
#054380:0000000013000033
#0543b0:00000000000000000000003300000000
#0553b0:0023
#056320:00000000000000001300002300000000
#0563b0:0000000000000013
#057380:0033000023000000
#0573b0:00000000335333000000000000000000
#058380:13
#0583b0:00230000
#058350:0000000013000023
#058320:00000000000000000000003300000000
#060320:0014
#060350:00000000000000000000002400000000
#0603a0:0000000000000014
#061370:0034000024000000
#0613a0:00000000345434000000000000000000
#062370:14
#0623a0:00240000
#062350:0000000014000034
#062320:00000000000000000000003400000000
#063320:00000054000000000000000000000000
#063350:0024
#0643a0:0014
#064370:00000000000000000000002400000000
#064320:0000000000000014
#065350:0034000024000000
#065320:00000000345434000000000000000000
#066350:14
#066320:00240000
#066370:0000000014000024
#0663a0:00000000000000000000003400000000
#0673a0:0014
#067370:00000034
#0683a0:34
#068370:0000000000000054
#0693a0:00000024
#068351:14
#068321:0000000000000054
#069351:00000024
#0703b1:13
#070381:00230000
#070321:0000000013000033
#070351:00000000000000000000003300000000
#071351:0023000000000000
#072321:13
#072351:00230000
#0723b1:0000000013000033
#072381:00000000000000000000003300000000
#073381:0023000000000000
#0733b1:00000013
#074381:3333
#0743b1:00000000330000000000003300002300
#074320:1333
#074350:00000000330000000000003300002300
