This file was generated by Ched 2.7.0.0.
#TITLE ""
#ARTIST ""
#DESIGNER ""
#DIFFICULTY 0
#PLAYLEVEL
#SONGID ""
#WAVE ""
#WAVEOFFSET 0
#JACKET ""
#REQUEST "ticks_per_beat 480"
#00002: 4
#BPM01: 85
#00008: 01
#TIL00: ""
#VOLUME: ""
#HISPEED 00
#MEASUREHS 00
#0001a:14
#00112:14
#00218:14
#00210:41
#00318:14
#00414:14
#00514:14
#0061a:14
#0071a:14
#00812:14
#00912:14
#01812:0016
#01818:26
#01810:41
#01918:1616
#02012:16
#02018:0016
#02112:1616
#02218:1616
#02412:1616
#02812:14
#02918:14
#03014:14
#03010:41
#0311a:14
#03212:14
#03318:14
#03314:0014
#03812:2616
#0381f:21
#03810:00410000
#03918:1616
#0341f:11
#02618:26
#02610:41
#04212:26
#01010:41
#02658:66
#04252:66
#0103a0:14
#0113a0:24
#012340:14
#013340:24
#014380:14
#015380:24
#016320:14
#017320:24
#023380:1626
#025320:1626
#026380:16
#0273a0:24
#0343a0:14
#0353a0:34
#036380:34
#0373a0:3424
#040320:1626
#041380:1626
#042320:16000024
