This file was generated by Ched 2.7.0.0.
#TITLE ""
#ARTIST ""
#DESIGNER ""
#DIFFICULTY 0
#PLAYLEVEL
#SONGID ""
#WAVE ""
#WAVEOFFSET 0
#JACKET ""
#REQUEST "ticks_per_beat 480"
#00002: 4
#BPM01: 85
#00008: 01
#TIL00: ""
#VOLUME: ""
#HISPEED 00
#MEASUREHS 00
#0001a:0012
#00016:12
#00014:00120000
#00114:00001212
#00118:12
#0011a:00120000
#00216:0012121200120000
#00218:00150015
#0021a:000000000013000000000000000000000013000000000000
#00214:0012
#00213:00000012
#00215:0000000000000012
#00210:41
#00318:00150015
#0031a:000000000013000000000000000000000013000000000000
#00316:0012
#00312:12000012
#00315:000000120032000000000000000000000000000000000000
#00619:000000000013150000000000000000000013150000000000
#00616:0012121200120000
#00614:0012
#00613:00000012
#00615:0000000000000012
#00719:000000000013150000000000000000000013150000000000
#00712:12000012
#00714:0012000000000000
#00716:0000121200000012
#00715:00000000001200000000000000000000
#00717:00000000000000120000000000000000
#00418:0012121200120000
#0041a:0012
#0041b:00000012
#00419:0000000000000012
#00413:000000000013150000000000000000000013150000000000
#0051c:12000012
#00519:000032120000000000000000000000000000000000000000
#00518:0012
#00513:000000000013150000000000000000000013150000000000
#00818:00001200000000000012120000000012
#0081b:00000000000012120000000000000000
#00812:00150015
#00814:000000000013000000000000000000000013000000000000
#00819:00000052000000000000000000000000
#0081a:00520000
#00918:1200000000000012
#0091a:00001212000000000000000012000000
#0091c:00000000000012120000120000000000
#00914:000000000013000000000000000000000013000000000000
#00912:00150015
#01013:00120000
#01014:0000001200000000
#01015:00001212
#01012:0000000000000012
#01010:41
#0111c:00001212000000000000000000001200
#01118:0000001200000000
#01119:0012
#0111a:0000000000120000
#0111b:00000012
#01212:00120012
#01214:0000001200000000
#01216:0012
#0131c:00121200
#01314:0000000000000012
#0131a:0000000000220022
#01318:00000022
#0141b:1300000000000000000000000000000000000000130000000000003300000033
#01417:0000003313000033000000000000000013000000000000001300000000000000
#01416:1300000000000000130000000000000000000033130000330000000000000000
#01412:0013000013000000
#01414:0000001300000000
#01515:1313130000000000
#01518:0000001300000013000000130000000000000000130000000000000000000000
#0151b:0013
#01512:0000001300000000
#01618:13
#01615:0013000013000000
#0161b:0000000000130000
#0171a:14
#01715:13
#01717:0014000000000000
#01712:0013000000000000
#0171b:0012
#01716:0054
#01917:13
#01912:13000013
#01919:0013000000000000
#0191b:0000130013000013
#01914:0000000000130000
#01918:0000000000000000000000000000000000000000000000130000000000000000
#01915:0000000000000013000000000000000000000000000000000000000000000000
#01916:0000000000000013
#01814:00000013
#0181b:2300000013000013
#01816:0000000000000013
#01812:260000000000003333333333000000130000000000000000
#01817:0000000000130000
#01819:00000013
#01815:00230000
#01818:003333333333000000000000000000000000000000000000
#01810:41
#02012:160000000000003333333333000000000000000000130000
#02015:00230013
#02018:000000003300000033000000330000003300000033000000000000000000000000000000000000000000000000000000000000000000000000000000000000000000000000130000000000000000000000000000000000000000130000000000
#0201b:2300000013000013
#02016:0000000000140000
#02212:140000003333000000003333000000000000130000000000
#02218:003333000000003333000000130000000000000000130000
#02215:0000000023000000000000002300000000000000130000000000001300000000
#0221b:23230013
#02115:1300001300000000000000000000000000000000000000000000000000000000
#02112:00000000000000000000000000000000000000130000000000000000000000000000000000000000000000000000000000000000000000000000000000000000
#0211b:00000000000000000000000000000000000000130000000000000000000000000000000000000000000000000000000000000000000000000000000000000000
#02114:00000014
#02118:0023000000002400
#0231a:1400000000000013000000000000000000000000000000000000000000000000
#02312:14000023
#02318:0000001300000000000000001300000000000000000000000000000013000000
#02315:0000000013000000000000001300000000000000000000000000001300000013
#0231b:00000013
#02313:0000000000000023000000000000000000000000000000000000000000000000
#0241a:14
#02418:0000000000000000000000130000001300000000000000130000000000000000
#02415:0000001300000000
#02412:00130000
#0241b:0000000000000000230000000000000000000013000000000000000000000000
#02515:13
#02512:0000003333000033130000333300003300000000000000001300000000000000
#02518:1313
#0251b:0000000000000000130000000000000000000000330000331300003333000033
#02616:00130000
#02617:00000013
#02615:23
#02618:23
#0261b:00230000
#02612:00000023
#02610:41
#02716:13000013
#02714:0013000000000000
#02717:00130000
#02712:00230000
#0271b:00000023
#02817:13
#02819:0013000000000013
#02815:00000013000000000000000000000000
#02813:00000000000000000000000000000013
#0281b:00230000
#02812:00000023
#0291b:13000023
#02914:0013000000000013
#02918:00000013000000000000000000000000
#02916:13
#0291a:00000000000000000000000000000013
#02912:00230000
#03017:13
#03019:0013000000000013
#03014:0000000000000013
#0301b:00230000
#03012:00000023
#03010:41
#03116:13
#03114:0013000000000013
#03119:0000000000000013
#03112:00230000
#0311b:00000023
#03212:13
#0321b:13230023
#03218:0013000000000013
#03215:00000013000000000000000000130013
#0331b:1313000000000000
#03312:13000000000000130000130000000000
#03316:00000013000000000000140000001400
#03319:00130000
#03314:00000000001300000000000000000000
#03317:0000001300000000
#0331a:0014
#03315:00000013
#03516:0012
#03512:22
#0351c:22
#0361c:0000000000000000000000000012000000000000000000000000000000000000
#03619:00000000000000000000000000001232
#03618:22
#03617:00220000
#03616:0022
#03615:00000000000000000000000022002232
#03713:00000012000000000000000000000000
#0371b:00000012000000000000000000000000
#03715:00006216
#03719:0062
#03815:0000230000000013
#03818:260000003600000036000000360000003600000036000000000000000000000000000000000000000000000000000000160000000000000000000000000000000000000000000000000000000000000000130000000000000000000000000000
#0381a:00000014
#03816:0000000000140000
#03812:260000000000003636363636000000000000240000000000
#0381f:21
#03810:00410000
#03912:14000013
#03915:0000001300000000000000000000000000000000000000000000000013000000
#03918:0000000013000000000000001200000000000000000000000000001300000013
#03913:0000000000000014000000000000000000000000000000000000000000000000
#03916:0000001200000000
#0391a:14
#03919:0000000000000024000000000000000000000000000000000000000000000000
#0391b:00000023
#04012:1400000000000000230000000000000000000013000000000000000000000000
#04015:0000000000000000000000130000000000000000000000000000000000000000
#04018:0000001300000000
#0401b:0000000000000000130000000000001300000000000000130000000000000000
#04017:0000000000000000000000000000000000000013000000000000000000000000
#04019:0013000000000000
#04014:0013000000000000
#04016:0000000000000000000000000000001300000000000000130000000000000000
#04115:1313
#04112:0000000000000000130000000000000000000000330000331300003333000033
#0411b:0000003333000033130000333300003300000000000000001300000000000000
#04114:0012001200000000
#0411a:0000000000120012
#04118:13
#0341f:11
#03412:25000000000025000000240000230000
#03419:2500002500000000
#0341a:0000000000240000
#0341b:00000000000000000000000000230000
#04218:23000062
#04216:00000052
#00056:62
#00054:00220000
#00158:52
#0015a:00220000
#00154:00000022
#0025a:000000000023000000000000000000000023000000000000
#00258:00650065
#00358:00650065
#0035a:000000000023000000000000000000000023000000000000
#00352:52120012
#00355:0022000000000000
#00659:000000000023550000000000000000000023550000000000
#00759:000000000023550000000000000000000023550000000000
#00755:00000000002200000000000000000000
#00757:00000000000000220000000000000000
#00756:0000626200000000
#00752:00000012
#0055c:62120012
#00553:000000000023550000000000000000000023550000000000
#00559:0022000000000000
#00858:0000000000620000
#00852:00650065
#00854:000000000023000000000000000000000023000000000000
#01055:0012
#01054:13
#01256:0012
#01356:00000012
#0145b:63430000
#01457:0023000000006300
#01452:00005333
#01456:0000000000230000
#01552:0000001300000000
#0175a:64440000
#01755:63
#01757:0024000000000000
#01752:0023000000000000
#01852:36
#0195b:00130000
#01952:00000013
#01955:0000000000000063000000000000000000000000000000000000000000000000
#02052:36
#02155:0000005300000000000000000000000013000000000000000000000000000000
#02152:00000000000000000000000000000000000000230000000000000000000000000000000000000000000000000000000000000000000000000000000000000000
#0215b:00000000000000000000000000000000000000230000000000000000000000000000000000000000000000000000000000000000000000000000000000000000
#02154:00000034
#02158:0053000013004400
#0235a:0000000000000063000000000000000000000000000000000000000000000000
#02353:0000000000000063000000000000000000000000000000000000000000000000
#02358:0000006300000000
#02355:0000006300000000
#0245a:14
#0245b:0000000000000000000000000000000000000063000000000000001300000000
#02458:0000000000000000000000000000006300000000000000630000000000000000
#02555:63
#02552:00230000
#0255b:00000023
#02558:0063
#02658:13
#02655:13
#02652:00000013
#02657:00000063
#02756:00000053
#0275b:00000013
#02852:00000013
#02857:00000013
#0295b:00000013
#02956:00000013
#03055:0000001300000000
#03052:00000013
#0305b:00000013
#0315b:00000013
#03158:0000001300000000
#03152:00000013
#0325b:00000013
#0335a:00006444
#03356:0000000000240000
#0355c:12
#03552:62
#03556:0022
#03658:62
#0365c:0000000000000000000000000022000000000000000000000000000000000000
#03655:0000000000000062
#03659:0000000000000062
#0375b:00000022000000000000000000000000
#03753:00000022000000000000000000000000
#03852:36
#03858:0016
#03953:0000000000000054000000000000000000000000000000000000000000000000
#03958:0000005200000000
#03956:0000005200000000
#03959:0000000000000054000000000000000000000000000000000000000000000000
#04052:1400000000000000000000000000000000000053000000000000001300000000
#0405b:0000000000000000000000000000005300000000000000530000000000000000
#04057:0000000000000000000000000000000000000053000000000000001300000000
#04056:0000000000000000000000000000005300000000000000530000000000000000
#04155:0053
#04152:00130023
#0415b:00230013
#04158:53
#02258:0013
#00453:000000000023550000000000000000000023550000000000
#00954:000000000023000000000000000000000023000000000000
#00952:00650065
#000360:1222
#000340:00520000
#001380:1222
#0013a0:00520000
#001340:00000012
#002320:26
#0023a1:130000000053000053000000000000000053000053000000
#002381:00550055
#0033a1:000000000053000053000000000000000053000053000000
#003381:00550055
#0043a1:23
#003320:12220000
#003350:000000320032000000000000000000000000000000000000
#004330:130000000053550053000000000000000053550053000000
#005330:000000000053550053000000000000000053550053000000
#006330:23
#0053c1:12220000
#005391:000032320000000000000000000000000000000000000000
#006391:130000000053550053000000000000000053550053000000
#007391:000000000053550053000000000000000053550053000000
#008391:23
#007360:0000125222000000
#007350:00000000005200000000000000000000
#007370:00000000000000520000000000000000
#008340:130000000053000053000000000000000053000053000000
#008320:00550055
#009340:000000000053000053000000000000000053000053000000
#009320:00550055
#010340:23
#008381:0000000000120000
#0083b1:00000022
#010381:12
#011381:25
#011330:15
#012360:22
#012381:12
#013381:25
#013330:15
#013360:00000022
#0143b0:13230000
#014370:0000003333000033000000000000000000000000000000000000000000000000
#014320:00001323
#014360:0000000000000000000000000000000000000033330000330000000000000000
#014371:00000013
#0143b1:0000000000000000000000000000000000000000000000000000003300000033
#0153b1:23
#015321:0000000000132300
#0153b0:0000000000001323
#015351:0000000000000013
#016351:23
#0163b1:0013230000000000
#016320:0000132300000000
#016381:0000001323000000
#016321:0000000000132300
#016380:0000000000001323
#016351:0000000000000013
#017351:33
#017321:0053000000000000
#017361:00342400
#0173a0:14240000
#017370:0054000000000000
#0183b1:13
#018381:003333333333230000000000000000000000000000000000
#018350:00130000
#018320:000000000000003333333333230000000000000000000000
#019350:0000000000000013000000000000000000000000000000000000000000000000
#019360:0023
#0203b0:13
#020380:003333333333230000000000000000000000000000000000
#020351:00130000
#020321:000000000000003333333333230000000000000000000000
#021351:0000001300000000000000000000000023000000000000000000000000000000
#021321:00000000000000000000000000000000000000530000000000000000000000000000000000000000000000000000000000000000000000000000000000000000
#021380:0013000023000000
#0213b0:00000000000000000000000000000000000000530000000000000000000000000000000000000000000000000000000000000000000000000000000000000000
#0223b0:13
#022380:003333230000000000000000000000000000000000000000
#022351:0013000000000000
#022321:000000003333230000000000000000000000000000000000
#0223b0:00130000
#022380:000000000000003333230000000000000000000000000000
#022351:0000001300000000
#022321:000000000000000000003333230000000000000000000000
#0233a1:0000000000000013000000000000000000000000000000000000000000000000
#023381:0000003300000000
#0233b1:0000000000230000
#023330:0000000000000013000000000000000000000000000000000000000000000000
#023350:0000003300000000
#023320:0000000000230000
#024380:0000000000000000000000000000001300000000000000330000000000000000
#0243b0:0000000000000000000000000000000000000033000000000000002300000000
#025350:1323
#025320:0000003333000033530000333300003300000000000000000000000000000000
#025381:0013
#0253b1:0000000000000000000000000000000000000000330000333300003333000033
#026381:23
#026371:0000001323000000
#026320:0000001323000000
#026320:0000000000132300
#026371:0000000000133300
#0273b1:23
#027361:0000001323000000
#0273b0:0000001323000000
#0273b0:0000000000132300
#027361:0000000000133300
#028321:23
#028371:0000001323000000
#028320:0000001323000000
#028370:0000000000132300
#028321:0000000000132300
#029361:0000001323000000
#0293b0:0000001323000000
#029360:0000000000132300
#0293b1:0000000000132300
#030321:13
#030351:0000002300000000
#030380:0000001300000000
#0303b0:00000023
#030321:0000000000132300
#0313b1:13
#031381:0000002300000000
#031350:0000001300000000
#031320:00000023
#0313b1:0000000000132300
#032321:0000001323000000
#032370:0000001323000000
#032360:0000000000132300
#0323b1:0000000000132300
#0333a1:00001424
#033361:0000000000340000
#035321:12
#035361:0052
#036341:22
#036380:12
#0363c0:0000000000000000000000000052000000000000000000000000000000000000
#036390:00000000000000000000000000003232
#0373b0:00000052000000000000000000000000
#037390:0022
#036351:00000000000000000000000000001232
#037331:00000052000000000000000000000000
#037351:0022
#038381:163636363636230000000000000000000000000000000000
#038350:00130000
#038320:000000000000003636363636260000000000000000000000
#039330:0000000000000014000000000000000000000000000000000000000000000000
#039360:0000003200000000
#039320:0000000000240000
#039391:0000000000000014000000000000000000000000000000000000000000000000
#039381:0000003200000000
#0393a1:0000000000240000
#0403b1:0000000000000000000000000000001300000000000000330000000000000000
#040371:0000000000000000000000000000000000000033000000000000002300000000
#040360:0000000000000000000000000000001300000000000000330000000000000000
#040320:0000000000000000000000000000000000000033000000000000002300000000
#041380:1323
#0413b0:0000003333000033530000333300003300000000000000000000000000000000
#041351:0013
#041321:0000000000000000000000000000000000000000330000333300003333000033
#042351:33
#042361:00000022
#042380:13000022
#008980:0012000000000000
#0089a0:00220000
