This file was generated by Ched 2.7.0.0.
#TITLE ""
#ARTIST ""
#DESIGNER ""
#DIFFICULTY 0
#PLAYLEVEL
#SONGID ""
#WAVE ""
#WAVEOFFSET 0
#JACKET ""
#REQUEST "ticks_per_beat 480"
#00002: 4
#BPM01: 119
#00008: 01
#TIL00: ""
#VOLUME: ""
#HISPEED 00
#MEASUREHS 00
#0161b:13
#01618:00130000
#01615:00000000000013535353535353000000
#01612:13130000
#00112:13
#0011b:13000000000000001353535300000000
#00115:00000000135353530000000000000000
#00118:0013000000000000
#00312:13000000000000001353535300000000
#0031b:13
#00318:00000000135353530000000000000000
#00315:0013000000000000
#00418:0000001313000000
#0041b:1313000000000000
#00412:00130013000000000000000024000000
#00415:00000000001300130000000000000000
#00416:0000000000140000
#0041a:00000024
#00518:0013001300000000
#00519:00000013
#00515:00000013000000000000330000000000
#00512:2413
#00516:00000000000000000000003300000000
#0051b:00000000000000000000000000005353
#00617:0013
#00614:00000000000000000013000000000000
#00619:0000000000130000
#00616:13000013000000000000001300001300
#00612:0000001300000000
#0061b:53000013000000000000000000000000
#00715:0013000000000000
#00712:0000001300000053
#00714:00000013
#00718:00000013000000000000003300000000
#0071b:0013
#0071a:24000000000000000033000000000000
#00719:0000000000330000
#00713:00000000000000000000000000530000
#01418:13000000001300130000000000000013
#0141b:00000013000000000013000000000000
#01415:00000000000013000000001300001300
#01412:00000013000000000000000000000000
#0141a:0000000033330000
#01516:0000001400000000
#01518:00130000000000000000000013000000
#01515:1300000000000013
#01512:0013000014000000
#0151a:0014
#02418:0013
#0241b:13000000000000000000333300000000
#02415:0013
#02412:00000000000000000000333300000000
#02918:00000000000053535300130000000000
#0291b:130000530000530000530000530000005300000053000000530000000000000000000000000000000000000000000000000000000000000000000000000000000000000000000000230000000000000000000000000000000000000000000000
#02912:00002613
#02919:005300
#0291a:000000000000005300000000000000000000000000000000
#02913:00000000000000000000000000530000
#02914:0000000000000053
#02915:00000000000000000000000000000053
#0331a:0013
#03318:12
#03316:0000001200000000
#03313:0013
#03312:53
#03418:00120000
#0341a:0000000013135300
#03413:00000000000000000013001300000000
#03410:41
#0351a:0000001212000000
#03518:0000000000000012
#03516:12
#03512:0013
#0351f:11
#0371b:0013
#03714:0000001212000000
#03718:12
#03716:0000000000000012
#03919:0012
#03916:1200001200000000
#03912:0013
#0391b:0000000000001212
#0411b:0000000000000000000000000000000013000000000000001252520052000000
#04115:0012
#04118:1200001200000000
#04113:0000000000000000000000000000000000000000000000001252520052000000
#00816:0013
#00819:00000000000000000013000000000000
#00814:0000000000130000
#00817:13000013000000000000001300001353
#0081b:0000001300000000
#00812:53000013000000000000000000000000
#01315:00130013000000000000000013000000
#0131b:0013
#01312:0000000000000000000033133300000000000000130000000000000000003300
#01318:13001300000000000000001300000000
#01313:00000000000000330000000000003300
#01314:00000000000000000000000000330000
#05116:00000013000000000000000000000000
#05112:2400001313001300
#05119:0000000000000013
#05114:0000000000000013
#05117:1313
#0511b:00000013000000000000130000000000
#01919:00000013000000000000000000000000
#01917:0000001313000000
#01916:1300000000000013
#01914:00000000000000000000001300000000
#0191b:13
#0181b:13000013000000000000000000001300
#01817:0013
#01816:13000013
#01812:0000001313000000
#0571b:0013000000000000
#05717:00130000
#05712:0000130000130000
#05718:13000013
#05715:00000000000000000000001300000000
#0581b:1300001313000000
#05816:13
#05812:00000013000000000000000053000000
#0581a:00000000000000000053000000000000
#05819:0000000000530000
#05818:00000000000000000000005300000000
#05817:00000053
#02216:13
#02217:0000001300240000
#0221b:00000013000000000000000000000000
#02212:0013
#0221a:0024
#02214:00000024
#02116:2300000000000013
#02114:00000013000000000000000000000000
#02112:0000001313000000
#0211b:13000000000000000000000013000013
#02117:0013
#02314:00130000
#02319:00130000
#02318:0000000000130000
#02315:00000000000000000000001300000000
#0231b:13000013
#02312:0013000000000000
#02615:00000000000000140000000000000000
#02616:13
#02612:00130000
#0261b:00230023
#02619:53
#02815:0000001300000000
#02818:0000000000130000
#02817:0014000000000000
#02812:00230013
#0281b:00130023
#03117:00000000000000140000140000000000
#03115:00000000000000000000000000000014
#0311b:00130023
#03112:00230013
#03118:26
#03215:0014000000000000
#0321b:0000131300000000
#03212:0000000000000000230000000000000000000000000000001353530053005300
#01714:0000000000000013
#01716:0013
#01717:13000013
#0171b:0000001313000000
#01712:23000013000000000000000000000000
#01710:41
#02012:0000001313000000
#02016:13
#0201b:00000013000000000000000000000000
#02017:0013
#02715:00000000000000140000140000000000
#02717:00000000000000000000000000000014
#02712:26130013
#0271b:00230023
#02517:00000000000000140000140000000000
#0251b:00130013
#02518:26
#02512:00230023
#02510:41
#0251a:00000000000000000000000000530000
#02519:0000000000000053
#03618:00120000
#0361b:0013
#03616:12
#03612:0000000000000000000000000000000052000000000000005252520052000000
#03812:0013
#03816:00120000
#03818:12
#0381c:00000000000000000000000000000000000000000000000000000000000000005200000000000000000000000000000052525200000000005252520000000000
#0481b:1313
#04816:0000001300000000
#04812:00000013000000002500000000000000
#04817:00000013000000000000000000000000
#04815:0000000000250000
#04818:00000025
#04717:0000001300000013
#0471b:00000013000000001300000000000000
#04712:13000000000000001300000013000013
#04716:00000013000000000000000000000000
#0471a:24
#0491b:0013000000000000
#04919:00130000
#04914:00130000
#04915:0000000000130000
#04918:00000000000000000000001300000000
#04912:13000013
#05412:1300001313000000
#0541b:13000013000000001300000000000000
#05416:0000000000130000
#05316:00000013000000001300000000001300
#05317:13000000000013000000001300000000
#0531b:00000013000000001300000000000000
#05312:13000000000000000000001300000000
#05310:41
#05518:0000000000000013
#05515:00000000000000000000000000000013
#0551b:00000013000000000000130000000000
#05512:13000013
#05516:24000013000000000000000000000000
#05517:0013
#00215:13
#00218:00130013000000001353535300000000
#00212:00000000135353530000000000000000
#00917:53000013000000000000000000000000
#00912:0000001300000000
#0091b:0000000000000013
#00915:00000000000000000000001300000000
#00910:41
#0101b:00000013000000001300000000000000
#01015:00000000130000001300000000000013
#01012:1300001300000000
#01018:0000000000000013
#01013:00000000000000330000000000000000
#0401b:0013
#04018:0000001200000000
#0401a:0000000000000000000000000000000000000000000000001252520052000000
#04016:12
#04012:0000000000000000000000000000000052000000000000005252520052000000
#01112:00131300
#01117:00130000
#0111b:13000013
#01116:00000013
#01219:0013
#0121b:0000000000130000
#01212:00000000000000000023000000000000
#01214:00000000000000000000002300000000
#03012:0013000000000000
#0301b:0000001300001300
#03018:13
#03015:00130000
#04317:1313
#04312:2400001313000000
#0431b:00000013000000000000000013000000
#04314:0000000000000013
#04316:00000013000000000000000000000000
#0431f:21
#04310:0041
#04514:00000013000000000000000000000000
#04512:0000001313000000
#0451b:1300000000000013
#04519:00000000000000000000001300000000
#04516:13
#04419:0000000000000013
#04412:00000013000000000000000013000000
#0441b:0000001313000000
#04416:1313
#04417:00000013000000000000000000000000
#0441a:14
#0461b:1300001313000000
#04612:00000013000000001300000000000000
#04615:0000000000130000
#04618:0000000000130000
#05217:00000013000000000000000000000000
#0521b:0000001313001300
#05214:0000000000000013
#05219:0000000000000013
#05216:1313
#05212:00000013000000000000130000000000
#0521a:14
#0561b:13
#05617:00000013000000000000000000000000
#05612:00000013000000001300000026000000
#05616:0000001300000000
#05615:0000000000260000
#05618:0026
#05015:0013
#05012:13000000000000000000333300000000
#05018:0013
#0501b:00000000000000000000333300000000
#04219:0000000000000013
#0075a:14
#00758:00000053000000000000000000000000
#0075b:0053
#02458:0053
#02455:0063
#01956:53
#01957:0053
#0585b:63
#05852:00000063000000000000000000000000
#05157:5353
#0515b:00000023000000000000230000000000
#05152:1413
#02056:53000013
#0205b:00000053000000000000000013000000
#02057:0053
#02052:0023
#0215b:63
#02152:0063
#02157:0013
#02256:63
#02852:00000063
#03158:16
#0325b:0000005300000000
#02558:16
#02752:16
#02952:0016
#0485b:53
#04857:00000053000000000000000000000000
#04752:5313
#0475b:0053
#04756:00000053000000000000000000000000
#0475a:14
#0545b:00000063000000000000000000000000
#05452:53006313
#05456:0000000000230000
#05356:00000023000000000000000000000000
#05357:00000000000000000000002300000000
#0535b:0053
#05352:53
#00555:00000053000000000000000000000000
#00552:1453
#0105b:0063
#01052:6300002300000000
#01055:00636300
#01152:0063
#01157:00230000
#0115b:63
#01156:00000023
#00955:00000000000000000000005300000000
#00957:00000053000000000000000000000000
#01756:0053
#0175b:0013
#01757:53
#01752:13000053000000000000000000000000
#01857:0063
#01856:63
#0185b:00000063000000000000000000000000
#01852:0013
#04357:6313
#04352:1463
#0435b:00000053000000000000000000000000
#0455b:63
#04552:0063
#0465b:63005313
#04652:00000063000000006300000013000000
#04655:0000000000230000
#04658:0000000000230000
#0445b:0053
#04456:5313
#04452:00000063000000000000000000000000
#03052:0013000000000000
#0305b:0000001300000000
#01355:00000053000000000000000053000000
#01352:0000000000000000000000230000000000000000000000000000000000000000
#03656:62
#03858:52
#04056:62
#05256:6363
#05252:00000023000000000000230000000000
#0525b:0013
#0525a:14
#05552:5313
#05556:14000023000000000000000000000000
#05557:0053
#0555b:0000000000230000
#0565b:63
#05657:00000023000000000000000000000000
#0065b:00000053000000000000000000000000
#00852:00000063000000000000000000000000
#01458:00000000000000530000000000000000
#0145b:00000000000000000023000000000000
#05055:0063
#05058:0053
#005350:00000013000000000000000000000000
#005320:0000002300000000
#005320:0013
#005350:0000000000330000
#005360:00000000000000000000003323000000
#0063b0:00001333000000000000000000000000
#006370:0000002300000000
#0063b0:0000000000001323
#007380:00000013000000000000000000000000
#0073b0:0000002300000000
#0073b0:0013
#0073a0:00000000000000000033000000000000
#007390:0000000000330000
#007380:00000000000000000000003300000000
#007370:00000023
#008320:00001333000000000000000000000000
#008360:0000002300000000
#008320:0000000000001323
#009340:13000023000000000000000000000000
#009371:00000013000000000000000000000000
#0093b1:0000002300000000
#009381:00000000000000001300002300000000
#009350:00000000000000000000001300000000
#009320:0000000000000023
#010320:13
#010350:00000023000000000000000000000000
#010350:00133300
#010320:0000003300002300
#010330:00000000000000330000000000000000
#0103b1:0013
#010381:00000023
#0113b1:1323
#011371:00530000
#011320:0013
#011360:00000053
#012320:23
#012391:13332300000000000000000000000000
#012350:00001333230000000000000000000000
#012381:00000000133323000000000000000000
#012340:00000000000013332300000000000000
#013350:00000013000000002300000000000000
#013320:0000000000000000000033533300000000000000000000000000000000000000
#013330:00000000000000330000000000000000
#013350:00000013
#013340:00000000000000000000000000330000
#013330:0000000000000033
#013320:00000000000000000000000000000033
#014320:23
#014380:00000000000000130000002300000000
#0143a0:0000000033330000
#0143b0:00000000000000000033000000000000
#017370:13
#0173b0:00000023000000000000000000000000
#017321:00000013000000000000000000000000
#017361:0000002300000000
#017361:0013
#017321:00000023
#018361:13
#018321:00000023000000000000000000000000
#0183b0:00000013000000000000000000000000
#018370:0000002300000000
#018370:0013
#0183b0:00000023
#019360:13
#019320:00000053000000002300000000000000
#019371:0013
#0193b1:00000000000000000000005300000000
#0203b1:23
#020360:13
#020320:00000023000000000000000000000000
#0203b1:00000013000000000000000000000000
#020371:0000002300000000
#020371:0013
#0203b1:00000023
#020320:0013
#020360:00000023
#0213b0:13
#021370:0000002300000000
#021320:0013
#021360:00000023
#022360:13
#022320:0000002300000000
#022340:00000014
#023340:24
#024350:13000023000000000000000000000000
#024381:00000013000023000000000000000000
#024350:0000001333000000
#024320:00000000000000000000333323000000
#024381:0013
#0243b1:00000000000000000000333323000000
#026321:00000013
#026351:0000000000000023
#026380:0000000000000013
#0273b0:23
#028320:00000013
#029360:23
#030320:0013
#030330:00000000000000000033000000000033
#030350:00000000000000000000003300330000
#030360:00000033
#031320:23
#0323b0:0000001300000000
#032370:00000023
#036360:12
#036320:0022
#038380:12
#0383c0:0022
#040360:12
#040320:0022
#043370:1300002300000000
#0433b0:00000033000000000000000000000000
#043320:0013
#043360:00000023
#044360:1300002300000000
#044320:00000033000000000000000000000000
#0443b0:0013
#044370:00000023
#0453b0:13
#045370:00000053000000002300000000000000
#045321:0013
#045361:00000000000000000000005300000000
#046361:23
#0463b0:13
#046370:00000023000000000000000000000000
#046321:00000013000000000000000000000000
#046361:0000002300000000
#046321:00001323
#046351:0000000000530000
#0463b0:00001323
#046380:0000000000530000
#047320:1300002300000000
#047360:00000053000000000000000000000000
#0473b0:0013
#047370:00000023
#0483b0:1300002300000000
#048370:00000053000000000000000000000000
#048380:00000015
#049380:25
#050380:13000023000000000000000000000000
#050351:00000013000023000000000000000000
#050380:0000001333000000
#0503b0:00000000000000000000333323000000
#050351:0013
#050321:00000000000000000000333323000000
#051371:1300003333002300
#0513b1:00000053000000000000530000000000
#052361:1300003333002300
#052321:00000053000000000000530000000000
#053321:1300002300000000
#053361:00000053000000000000000000000000
#0533b1:0000000013000023
#053371:00000000000000000000005300000000
#054321:13
#054361:00000023000000000000000000000000
#0543b0:00000013000000000000000000000000
#054370:0000002300000000
#054320:00001323
#054360:0000000000530000
#054361:00000014
#055361:24
#055320:1300003323000000
#055360:00000053000000000000000000000000
#055371:0000001333002300
#0553b1:0000000000530000
#0563b1:1300002300000000
#056371:00000053000000000000000000000000
#056321:00000016
#057321:26
#0583b1:13
#058371:00000023000000000000000000000000
#058320:00000013000000000000000000000000
#058360:0000002300000000
#058360:0013
#058320:00000023
#001950:00000000130000230000000000000000
#0019b0:00000000000000001300002300000000
#002920:00000000130000230000000000000000
#002980:00000000000000001300002300000000
#003980:00000000130000230000000000000000
#003920:00000000000000001300002300000000
#005990:00000013
#0059b0:0000000000000053
#0069b0:23
#007940:00000013
#007920:0000000000000053
#008920:23
#008970:0000000000000013
#009970:23
#016950:00000000000013000053005323000000
#0259b0:00000013
#025990:0000000000000053
#026990:23
#0299b0:13530000
#029980:0000005323000000
#029920:00000013
#029950:00000000000000000000000000000023
#032920:00000013
#033920:23
#036920:000000000000000000000000000000000000000000000000000000000000000000000000000000000000000000000000000000000000000000000000000000000000000000000000000000000000000000000000000000000000000000000000000000000000000000000000000000000000000000000000000000000000000000000000000000000000000000000000000000000000000000000000000000000000000000000000000000000000000000000000000000000000000000000000000000000000000000000000000000000000000000000000000000000000000000000000000000000000000000000000000000000000000000000000000000000000000000000000000000000000000000000000000000000000000000000000000000000000000000000000000000000000000000000000000000000000000000000000000000000000000000000000000000000000000000000000000000000000000000000000000000000000000000000000000000000000000000000000000000000000000000000000000000000000000000000000000000000000000000000000000000000000000000000000000000000000000000000000000000000000000000000000000000000000000000000000000000000000000000000000120000000000000000000000000000000000000000000000000000000000000000000000000000000000000000000000000000000000000000000000000000000000000000000000000000000000000000000000000000000000000000000000000000000000000000000000000000000000000000000000000000000000000000000000000000000000000000000000000000000000000000000000000000000000000000000000000000000000000000000000000000000000000000000000000000000000000000000000000000000000000000000000000000000000000000000000000000000000000000000000000000000000000000000000000000000000000000000000000000000000000000000000000000000000000000000000000000000000000000000000000000000000000000000000000000000000000000000000000000000000000000000000000000000000000000000000000000000000005200525252220000000000000000000000000000000000000000000000000000000000000000000000000000000000000000000000000000000000000000000000000000000000000000000000000000000000000000000000000000000000000000000000000000000000000000000000000000000000000000000000
#0389c0:000000000000000000000000000000000000000000000000000000000000000000000000000000000000000000000000000000000000000000000000000000000000000000000000000000000000000000000000000000000000000000000000000000000000000000000000000000000000000000000000000000000000000000000000000000000000000000000000000000000000000000000000000000000000000000000000000000000000000000000000000000000000000000000000000000000000000000000000000000000000000000000000000000000000000000000000000000000000000000000000000000000000000000000000000000000000000000000000000000000000000000000000000000000000000000000000000000000000000000000000000000000000000000000000000000000000000000000000000000000000000000000000000000000000000000000000000000000000000000000000000000000000000000000000000000000000000000000000000000000000000000000000000000000000000000000000000000000000000000000000000000000000000000000000000000000000000000000000000000000000000000000000000000000000000000000000000000000000000000000000120000000000000000000000000000000000000000000000000000000000000000000000000000000000000000000000000000000000000000000000000000000000000000000000000000000000000000000000000000000000000000000000000000000000000000000000000000000000000000000000000000000000000000000000000000000000000000000000000000000000000000000000000000000000000000000000000000000000000000000000000000000000000000000000000000000000000000000000000000000000000000000000000000000000000000000000000000000000000000000000000000000000000000000000000000000000000000000000000000000000000000000000000000000000000000000000000000000000000000000000000000000000000000000000000000000000000000000000000000000000000000000000000000000000000000000000000000000000000000000000000000000000000000000000000000000000000000000000000052525252220000000000000000000000000000000000000000000000000000000000000000000000000000000000000000000000000000000000000000000000000000000000000000000000000000000000000000000000000000000000
#040920:000000000000000000000000000000000000000000000000000000000000000000000000000000000000000000000000000000000000000000000000000000000000000000000000000000000000000000000000000000000000000000000000000000000000000000000000000000000000000000000000000000000000000000000000000000000000000000000000000000000000000000000000000000000000000000000000000000000000000000000000000000000000000000000000000000000000000000000000000000000000000000000000000000000000000000000000000000000000000000000000000000000000000000000000000000000000000000000000000000000000000000000000000000000000000000000000000000000000000000000000000000000000000000000000000000000000000000000000000000000000000000000000000000000000000000000000000000000000000000000000000000000000000000000000000000000000000000000000000000000000000000000000000000000000000000000000000000000000000000000000000000000000000000000000000000000000000000000000000000000000000000000000000000000000000000000000000000000000000000000000120000000000000000000000000000000000000000000000000000000000000000000000000000000000000000000000000000000000000000000000000000000000000000000000000000000000000000000000000000000000000000000000000000000000000000000000000000000000000000000000000000000000000000000000000000000000000000000000000000000000000000000000000000000000000000000000000000000000000000000000000000000000000000000000000000000000000000000000000000000000000000000000000000000000000000000000000000000000000000000000000000000000000000000000000000000000000000000000000000000000000000000000000000000000000000000000000000000000000000000000000000000000000000000000000000000000000000000000000000000000000000000000000000000000000000000000000000000000000052525252220000000000000000000000000000000000000000000000000000000000000000000000000000000000000000000000000000000000000000000000000000000000000000000000000000000000000000000000000000000000000000000000000000000000000000000000000000000000000000000000
#0409a1:000000000000000000000000000000000000000000000000000000000000000000000000000000000000000000000000000000000000000000000000000000000000000000000000000000000000000000000000000000000000000000000000000000000000000000000000000000000000000000000000000000000000000000000000000000000000000000000000000000000000000000000000000000000000000000000000000000000000000000000000000000000000000000000000000000000000000000000000000000000000000000000000000000000000000000000000000000000000000000000000000000000000000000000000000000000000000000000000000000000000000000000000000000000000000000000000000000000000000000000000000000000000000000000000000000000000000000000000000000000000000000000000000000000000000000000000000000000000000000000000000000000000000000000000000000000000000000000000000000000000000000000000000000000000000000000000000000000000000000000000000000000000000000000000000000000000000000000000000000000000000000000000000000000000000000000000000000000000000000000000000000000000000000000000000000000000000000000000000000000000000000000000000000000000000000000000000000000000000000000000000000000000000000000000000000000000000000000000000000000000000000000000000000000000000000000000000000000000000000000000000000000000000000000000000000000000000000000000000000000000000000000000000000000000000000000000000000000000000000000000000000000000000000000000000000000000000000000000000000000000000000000000000000000000000000000000000000000000000000000000120000000000000000000000000000000000000000000000000000000000000000000000000000000000000000000000000000000000000000000000000000000000000000000000000000000000000000000000000000000000000000000000000000000000000000000000000000000000000000005252220000000000000000000000000000000000000000000000000000000000000000000000000000000000000000000000000000000000000000000000000000000000000000000000000000000000000000000000000000000000000000000000000000000000000000000000000000000000000000000000
#041931:00000012
#042931:22
#0419b0:00000012
#0429b0:22
#0589b0:0013
#058970:00000053
#059970:23
#058921:00000013
#059921:23
