This file was generated by Ched 2.7.0.0.
#TITLE ""
#ARTIST ""
#DESIGNER ""
#DIFFICULTY 0
#PLAYLEVEL
#SONGID ""
#WAVE ""
#WAVEOFFSET 0
#JACKET ""
#REQUEST "ticks_per_beat 480"
#00002: 4
#BPM01: 119
#00008: 01
#TIL00: ""
#VOLUME: ""
#HISPEED 00
#MEASUREHS 00
#03112:00140014
#03118:0014
#0311a:24
#03218:14
#03212:0000001400000000
#03214:00000000000000000000001400000000
#03614:14
#03512:14
#0351f:11
#00114:14
#0011a:14
#00218:14
#00212:14
#00314:14
#0031a:14
#00412:14
#00418:1400000000140000
#00414:00000024
#00512:0014
#0051a:24
#0061a:14
#00612:0014
#00618:00000014
#00712:14
#0071a:0014
#00812:14
#0081a:0014
#00814:00000014
#0091a:14
#00910:41
#01014:14
#01118:14
#01212:14
#01318:0000341434000000
#0131a:14
#01414:0000341434000000
#01412:14
#01518:0000341434000000
#0151a:14
#01614:14
#01618:00140000
#01712:00140000
#01718:2414
#01714:00000014
#01710:41
#0181a:14
#01814:00140000
#01818:0014
#01812:00000014
#0191a:14
#01914:00140000
#01918:0014
#01912:00000014
#02018:14
#02014:00140000
#0211a:00140000
#02114:2414
#02118:00000014
#02212:14
#02218:00140000
#02214:0014
#0221a:00000014
#02312:14
#02318:00140000
#02314:0014
#0231a:00000014
#02414:14
#02418:00140000
#02512:00140014
#02518:00140014
#0251a:24
#02510:41
#02614:00140014
#0261a:00140014
#02712:00140014
#02718:00140014
#02814:00140014
#0281a:00140014
#02912:1624
#0291a:00000014
#03016:14
#03012:00140000
#03018:0024
#03014:00000024
#03818:14
#03814:00000014
#0371a:14
#0391a:14
#04012:14
#04018:00000014
#04114:14
#04118:00000014
#04312:00140000
#04318:2414
#04314:00000014
#0431f:21
#04310:0041
#0441a:14
#04414:00140000
#04418:0014
#04412:00000014
#0451a:14
#04514:00140000
#04518:0014
#04512:00000014
#04618:14
#04614:00140000
#0471a:00140000
#04714:2414
#04718:00000014
#04812:14
#04818:00140000
#04814:0014
#0481a:00000014
#04912:14
#04918:00140000
#04914:0014
#0491a:00000014
#05014:14
#05018:00140000
#05114:00140000
#05118:0014
#0511a:24
#0531a:14
#05316:00140014
#05312:0014
#05310:41
#0541a:14
#05412:0014
#05414:00000014
#05416:00140000
#05218:00140000
#05214:0014
#05212:14
#05518:00140000
#05514:0014
#05512:24
#05614:00140000
#0561a:14
#05618:0024
#05712:14
#05716:00140014
#0571a:0014
#05812:14
#0581a:0014
#05818:00000014
#05816:00140000
#03318:0014
#03414:14
#03418:0014
#03410:41
#04214:24
#0315a:14
#03252:0000005400000000
#03254:00000000000000000000002400000000
#0055a:14
#01758:14
#03654:54
#03552:64
#0095a:54
#01054:54
#01158:54
#01252:54
#01358:0000002400000000
#0135a:64
#01454:0000002400000000
#01452:54
#01558:0000002400000000
#0155a:64
#01654:00000014
#02154:14
#02952:5614
#03858:64
#0375a:54
#0395a:54
#04052:64
#04154:54
#04358:14
#04754:14
#05452:0064
#05454:00000064
#0515a:14
#05158:0064
#05552:14
#05554:0054
#05254:0054
#05658:0054
#0585a:0054
#05858:00000054
#0595a:14
#0093a0:14
#009380:0024
#010340:14
#010320:0024
#011380:14
#0113a0:0024
#012320:14
#012340:0024
#0133a0:14000024
#013380:0000345434000000
#014320:14000024
#014340:0000345434000000
#0153a0:14000024
#015380:0000345434000000
#016340:00001424
#0203a0:00001424
#024320:00001424
#029320:1624
#032320:0000143400000000
#032340:00000000000000000000005400000000
#033320:24
#035320:14
#035340:0034
#036340:34
#036320:0024
#0373a0:14
#037380:0034
#038380:34
#0383a0:0024
#0393a0:14
#039380:0024
#040320:14
#040340:0024
#041340:14
#041320:0024
#0463a0:00001424
#050320:00001424
#051380:0014
#0513a0:00000024
#052340:0014
#052320:00000024
#054320:0014
#054340:00000034
#055320:24
#055340:0014
#055320:00000024
#056380:0014
#0563a0:00000024
#0583a0:0014
#058380:00000034
#0593a0:24
